<?xml version="1.0" standalone="no"?>
<!DOCTYPE svg PUBLIC "-//W3C//DTD SVG 1.1//EN" "http://www.w3.org/Graphics/SVG/1.1/DTD/svg11.dtd" >
<svg>
<metadata>
Created by FontForge 20110222 at Tue Mar  3 16:49:15 2015
 By deploy user
Copyright (c) 1988, 1990, 1993, 2003 Linotype Library GmbH, www.linotype.com. All rights reserved. Copyright (c) 1988, 1990, 1993 Adobe Systems Incorporated. All Rights Reserved.
</metadata>
<defs>
<font id="HelveticaNeueLTPro-Roman" horiz-adv-x="556" >
  <font-face 
    font-family="HelveticaNeueLT Pro 55 Roman"
    font-weight="400"
    font-stretch="normal"
    units-per-em="1000"
    panose-1="2 11 6 4 2 2 2 2 2 4"
    ascent="714"
    descent="-286"
    x-height="517"
    cap-height="714"
    bbox="-166 -214 1076 973"
    underline-thickness="50"
    underline-position="-50"
    unicode-range="U+000D-FB02"
  />
<missing-glyph horiz-adv-x="512" 
d="M222 117h56v67h-56v-67zM225 234h46q0 52 6 72q6 19 43 52q37 34 50 60t13 60q0 59 -35 95t-89 36q-56 0 -92 -34t-43 -103l50 -8q11 95 82 95q31 0 53.5 -24.5t22.5 -60.5q0 -20 -9.5 -37t-40.5 -46q-31 -31 -46 -59q-13 -25 -13 -81zM462 50h-412v617h412v-617z
M512 718h-512v-718h512v718z" />
    <glyph glyph-name="IJ" unicode="IJ" horiz-adv-x="780" 
d="M82 0v714h95v-714h-95zM702 714v-536q0 -82 -50 -138.5t-161 -56.5q-100 0 -154 53.5t-54 154.5v44h95v-30q0 -69 25 -105.5t90 -36.5q62 0 88 33t26 96v522h95z" />
    <glyph glyph-name="ij" unicode="ij" horiz-adv-x="430" 
d="M154 714v-104h-85v104h85zM69 0v517h85v-517h-85zM362 714v-104h-85v104h85zM362 517v-583q0 -132 -124 -132q-24 0 -44 4v73q12 -2 17 -2h18q28 0 38 15.5t10 55.5v569h85z" />
    <glyph glyph-name="napostrophe" unicode="&#x22;n" horiz-adv-x="578" 
d="M86 0v517h80v-82h2q53 94 168 94q96 0 137 -49.5t41 -139.5v-340h-85v350q0 48 -28 76t-77 28q-75 0 -114 -44.5t-39 -117.5v-292h-85zM14 714v88h111v-77q0 -41 -26.5 -62t-72.5 -21v35q19 5 28.5 12.5t10.5 11.5t1 13h-52z" />
    <glyph glyph-name="fi" unicode="fi" horiz-adv-x="518" 
d="M450 0h-85v517h85v-517zM450 610h-85v104h85v-104zM99 0v442h-87v75h87v77q0 63 36.5 95.5t106.5 32.5q29 0 55 -8v-74q-21 7 -48 7q-33 0 -49 -13t-16 -45v-72h100v-75h-100v-442h-85z" />
    <glyph glyph-name="fl" unicode="fl" horiz-adv-x="518" 
d="M365 0v714h85v-714h-85zM99 0v442h-87v75h87v77q0 63 36.5 95.5t106.5 32.5q29 0 55 -8v-74q-21 7 -48 7q-33 0 -49 -13t-16 -45v-72h100v-75h-100v-442h-85z" />
    <glyph glyph-name=".notdef" horiz-adv-x="512" 
d="M222 117h56v67h-56v-67zM225 234h46q0 52 6 72q6 19 43 52q37 34 50 60t13 60q0 59 -35 95t-89 36q-56 0 -92 -34t-43 -103l50 -8q11 95 82 95q31 0 53.5 -24.5t22.5 -60.5q0 -20 -9.5 -37t-40.5 -46q-31 -31 -46 -59q-13 -25 -13 -81zM462 50h-412v617h412v-617z
M512 718h-512v-718h512v718z" />
    <glyph glyph-name=".null" horiz-adv-x="500" 
 />
    <glyph glyph-name=".null" horiz-adv-x="500" 
 />
    <glyph glyph-name="nonmarkingreturn" horiz-adv-x="333" 
 />
    <glyph glyph-name="CR" unicode="&#xd;" horiz-adv-x="0" 
 />
    <glyph glyph-name="space" unicode=" " horiz-adv-x="278" 
 />
    <glyph glyph-name="exclam" unicode="!" horiz-adv-x="259" 
d="M74 0v111h111v-111h-111zM177 714v-220l-25 -311h-45l-25 311v220h95z" />
    <glyph glyph-name="quotedbl" unicode="&#x22;" horiz-adv-x="426" 
d="M249 456v258h68v-258h-68zM109 456v258h68v-258h-68z" />
    <glyph glyph-name="numbersign" unicode="#" 
d="M355 424h-124l-21 -150h124zM102 0l29 206h-97v68h107l21 150h-102v68h111l29 205h69l-29 -205h124l29 205h69l-29 -205h89v-68h-98l-21 -150h91v-68h-101l-29 -206h-69l29 206h-124l-29 -206h-69z" />
    <glyph glyph-name="dollar" unicode="$" 
d="M25 218h85q2 -65 40.5 -105t100.5 -50v265q-112 28 -158.5 68t-46.5 125q0 89 58.5 146.5t146.5 63.5v66h55v-67q155 -19 197 -198h-85q-20 99 -112 116v-246l60 -16q24 -6 47.5 -18t50.5 -33.5t44 -56.5t17 -78q0 -94 -60.5 -151t-158.5 -66v-82h-55v82
q-100 10 -159 70.5t-67 164.5zM306 314v-251q129 9 129 128q0 52 -32 78t-97 45zM251 417v234q-51 -6 -83 -36.5t-32 -84.5q0 -48 28.5 -72.5t86.5 -40.5z" />
    <glyph glyph-name="percent" unicode="%" horiz-adv-x="1000" 
d="M167 508q0 -145 84 -145q88 0 88 146q0 145 -85 145q-87 0 -87 -146zM92 506q0 90 38 146.5t124 56.5q160 0 160 -200q0 -86 -39.5 -143.5t-120.5 -57.5q-85 0 -123.5 54.5t-38.5 143.5zM661 188q0 -145 84 -145q88 0 88 146q0 145 -85 145q-87 0 -87 -146zM586 186
q0 90 38 146.5t124 56.5q160 0 160 -200q0 -86 -39.5 -143.5t-120.5 -57.5q-85 0 -123.5 54.5t-38.5 143.5zM188 -22l538 744h85l-537 -744h-86z" />
    <glyph glyph-name="ampersand" unicode="&#x26;" horiz-adv-x="630" 
d="M275 439q29 19 44.5 31t33 38t17.5 55q0 32 -22.5 54t-59.5 22q-33 0 -57.5 -19.5t-24.5 -56.5q0 -9 2 -18t7 -19t8 -17t12 -19t12.5 -16.5t14.5 -18t13 -16.5zM534 0l-76 89q-31 -49 -86 -75t-116 -26q-68 0 -115.5 21.5t-69 55t-30 62.5t-8.5 56q0 76 43.5 125
t123.5 91q-4 5 -22.5 30.5t-23.5 33.5t-15.5 28t-14 37.5t-3.5 38.5q0 61 43 104t118 43q72 0 122.5 -38.5t50.5 -107.5q0 -107 -134 -185l129 -157q20 56 23 111h81q-6 -61 -15 -92t-33 -84l139 -161h-111zM411 148l-164 197q-61 -34 -92.5 -69t-31.5 -92q0 -52 41 -86.5
t95 -34.5q95 0 152 85z" />
    <glyph glyph-name="quotesingle" unicode="'" horiz-adv-x="278" 
d="M105 456v258h68v-258h-68z" />
    <glyph glyph-name="parenleft" unicode="(" horiz-adv-x="259" 
d="M269 -198h-65q-77 120 -117 232t-40 236q0 119 40.5 239.5t116.5 221.5h65q-132 -208 -132 -461q0 -255 132 -468z" />
    <glyph glyph-name="parenright" unicode=")" horiz-adv-x="259" 
d="M55 -198h-65q132 208 132 461q0 255 -132 468h65q77 -120 117 -232t40 -236q0 -119 -40.5 -239.5t-116.5 -221.5z" />
    <glyph glyph-name="asterisk" unicode="*" horiz-adv-x="352" 
d="M201 714v-113l107 40l20 -48l-109 -38l66 -91l-41 -31l-69 96l-65 -96l-45 31l65 91l-106 38l18 48l106 -40v113h53z" />
    <glyph glyph-name="plus" unicode="+" horiz-adv-x="600" 
d="M334 506v-219h218v-68h-218v-219h-68v219h-218v68h218v219h68z" />
    <glyph glyph-name="comma" unicode="," horiz-adv-x="278" 
d="M83 0v111h111v-101q0 -124 -110 -157v50q31 11 46 40t12 57h-59z" />
    <glyph glyph-name="hyphen" unicode="-" horiz-adv-x="389" 
d="M50 238v80h289v-80h-289z" />
    <glyph glyph-name="period" unicode="." horiz-adv-x="278" 
d="M83 0v111h111v-111h-111z" />
    <glyph glyph-name="slash" unicode="/" horiz-adv-x="333" 
d="M-18 -17l296 748h73l-296 -748h-73z" />
    <glyph glyph-name="zero" unicode="0" 
d="M132 349q0 -37 1 -59t4.5 -61t13 -63.5t25 -50.5t41.5 -39t61 -13t61 13t41.5 39t25 50.5t13 63.5t4.5 61t1 59q0 36 -1 58.5t-4.5 61t-13 63.5t-25 50.5t-41.5 38.5t-61 13t-61 -13t-41.5 -38.5t-25 -50.5t-13 -63.5t-4.5 -61t-1 -58.5zM42 348q0 47 2.5 81.5t9.5 80.5
t23 78t41 61.5t65.5 44.5t94.5 15t94.5 -15t65.5 -44.5t41 -61.5t23 -78t9.5 -80.5t2.5 -81.5q0 -57 -3 -98.5t-16.5 -94.5t-37.5 -86.5t-69.5 -57t-109.5 -23.5t-109.5 23.5t-69.5 57t-37.5 86.5t-16.5 94.5t-3 98.5z" />
    <glyph glyph-name="one" unicode="1" 
d="M356 709v-709h-85v508h-184v68q181 0 204 133h65z" />
    <glyph glyph-name="two" unicode="2" 
d="M129 458h-85q-6 110 55.5 180.5t172.5 70.5q96 0 159 -54t63 -150q0 -45 -13.5 -82t-41 -66.5t-52.5 -49.5t-65 -45q-5 -3 -36.5 -21.5t-39.5 -24t-33 -22t-34 -26.5t-24 -26.5t-22 -32.5t-10 -34h364v-75h-463q5 60 21.5 106t46.5 80t58 55.5t73 48.5q103 64 142 106
t39 110q0 57 -39.5 92.5t-97.5 35.5q-69 0 -104.5 -52.5t-33.5 -123.5z" />
    <glyph glyph-name="three" unicode="3" 
d="M218 333v72q7 -1 19 -1h18q57 0 96 30.5t39 85.5t-35 84.5t-91 29.5q-66 0 -100 -43.5t-34 -110.5h-85q4 105 60 167t159 62q97 0 156.5 -48t59.5 -142q0 -46 -27.5 -83.5t-70.5 -57.5v-2q63 -14 95.5 -60t32.5 -112q0 -102 -69.5 -159t-174.5 -57q-110 0 -174 61
t-62 170h85q2 -71 41 -113.5t110 -42.5q65 0 109.5 37.5t44.5 99.5q0 64 -42.5 100t-108.5 36q-27 0 -51 -3z" />
    <glyph glyph-name="four" unicode="4" 
d="M101 241h238v347h-2zM419 709v-468h96v-75h-96v-166h-80v166h-311v82l323 461h68z" />
    <glyph glyph-name="five" unicode="5" 
d="M470 697v-75h-286l-38 -204l2 -2q45 51 132 51q100 0 164.5 -63t64.5 -180q0 -97 -65.5 -166.5t-182.5 -69.5q-95 0 -159.5 55t-66.5 148h85q4 -56 45 -92t104 -36q64 0 107 44t43 124q0 70 -44.5 115.5t-115.5 45.5q-77 0 -132 -67l-73 4l66 368h350z" />
    <glyph glyph-name="six" unicode="6" 
d="M499 528h-85q-6 49 -37.5 77.5t-81.5 28.5q-165 0 -172 -269l2 -2q57 93 177 93q100 0 158.5 -64.5t58.5 -165.5q0 -42 -12.5 -81.5t-38.5 -76t-74 -58.5t-112 -22q-244 0 -244 341q0 78 13 142.5t41.5 120t81 86.5t125.5 31q88 0 140 -47t60 -134zM286 381
q-69 0 -108 -45.5t-39 -114.5q0 -68 39.5 -113t107.5 -45q66 0 104.5 45.5t38.5 111.5q0 70 -36.5 115.5t-106.5 45.5z" />
    <glyph glyph-name="seven" unicode="7" 
d="M509 697v-73q-108 -106 -185 -282.5t-87 -341.5h-95q12 173 87.5 333t192.5 284h-372v80h459z" />
    <glyph glyph-name="eight" unicode="8" 
d="M155 525q0 -55 35.5 -84.5t90.5 -29.5q52 0 84.5 30.5t32.5 83.5q0 52 -32.5 80.5t-86.5 28.5q-53 0 -88.5 -29t-35.5 -80zM65 528q0 83 61 132t147 49q108 0 161.5 -52.5t53.5 -128.5q0 -48 -26.5 -87.5t-71.5 -59.5q126 -40 126 -177q0 -100 -66.5 -158t-168.5 -58
q-107 0 -174 56t-67 160q0 63 32 109.5t92 67.5q-45 18 -72 58.5t-27 88.5zM130 200q0 -63 42 -100t109 -37q63 0 104 39t41 99q0 57 -43 96t-103 39q-64 0 -107 -37.5t-43 -98.5z" />
    <glyph glyph-name="nine" unicode="9" 
d="M49 171h85q5 -50 41.5 -79t88.5 -29q153 0 160 274l-2 2q-24 -45 -68 -71.5t-96 -26.5q-107 0 -165.5 65t-58.5 172q0 102 65 166.5t168 64.5q243 0 243 -339q0 -382 -246 -382q-92 0 -149.5 47t-65.5 136zM409 472q0 69 -39 115.5t-107 46.5q-71 0 -105 -48t-34 -120
q0 -60 40 -105t100 -45q65 0 105 45.5t40 110.5z" />
    <glyph glyph-name="colon" unicode=":" horiz-adv-x="278" 
d="M194 517v-111h-111v111h111zM83 0v111h111v-111h-111z" />
    <glyph glyph-name="semicolon" unicode=";" horiz-adv-x="278" 
d="M194 517v-111h-111v111h111zM83 0v111h111v-101q2 -124 -110 -157v50q31 11 46 40t12 57h-59z" />
    <glyph glyph-name="less" unicode="&#x3c;" horiz-adv-x="600" 
d="M554 514v-68l-425 -193l425 -193v-68l-508 230v62z" />
    <glyph glyph-name="equal" unicode="=" horiz-adv-x="600" 
d="M48 118v68h504v-68h-504zM552 388v-68h-504v68h504z" />
    <glyph glyph-name="greater" unicode="&#x3e;" horiz-adv-x="600" 
d="M46 -8v68l425 193l-425 193v68l508 -230v-62z" />
    <glyph glyph-name="question" unicode="?" 
d="M218 0v111h111v-111h-111zM140 491h-85q-2 104 59.5 172t164.5 68q95 0 153 -53t58 -147q0 -39 -14 -72.5t-29 -51.5t-43 -46q-22 -21 -32.5 -32t-26 -30.5t-22 -40.5t-6.5 -45v-39h-85v47q2 39 15.5 71.5t33 52.5t41 42t40 41t29.5 48t9 63q-4 55 -35.5 86t-85.5 31
q-69 0 -104 -46t-35 -119z" />
    <glyph glyph-name="at" unicode="@" horiz-adv-x="800" 
d="M618 554l-84 -284q-11 -37 -11 -51q0 -31 24 -31q46 0 92 75.5t46 154.5q0 114 -80.5 186t-190.5 72q-127 0 -215.5 -94.5t-88.5 -226.5q0 -133 91 -225t218 -92q71 0 138 33t110 88h63q-49 -82 -132.5 -129t-180.5 -47q-158 0 -266.5 109t-108.5 268q0 153 109 262
t262 109q141 0 240.5 -87.5t99.5 -220.5q0 -62 -23.5 -118t-59 -92.5t-76 -58t-75.5 -21.5q-27 0 -44.5 16.5t-19.5 48.5h-3q-59 -67 -124 -67q-63 0 -103 45.5t-40 112.5q0 110 67 197t168 87q81 0 112 -82l23 63h63zM420 505q-66 0 -113 -69t-47 -140q0 -42 24 -69.5
t62 -27.5q61 0 108 72t47 141q0 36 -25 64.5t-56 28.5z" />
    <glyph glyph-name="A" unicode="A" horiz-adv-x="648" 
d="M322 628l-121 -333h242l-119 333h-2zM-7 0l279 714h105l279 -714h-105l-78 215h-302l-80 -215h-98z" />
    <glyph glyph-name="B" unicode="B" horiz-adv-x="685" 
d="M173 634v-227h190q80 0 116 28t36 86q0 68 -39 90.5t-113 22.5h-190zM78 0v714h259q147 0 189 -26q84 -50 84 -149q0 -117 -106 -160v-2q65 -14 100.5 -59.5t35.5 -112.5q0 -83 -58 -144t-159 -61h-345zM173 327v-247h238q62 0 98 34.5t36 93.5q0 119 -155 119h-217z" />
    <glyph glyph-name="C" unicode="C" horiz-adv-x="722" 
d="M675 499h-95q-15 74 -69 113t-131 39q-120 0 -181 -83.5t-61 -205.5q0 -131 60.5 -215t182.5 -84q91 0 145.5 57.5t60.5 148.5h95q-14 -136 -94 -211t-215 -75q-159 0 -244.5 104t-85.5 268q0 163 89.5 269.5t248.5 106.5q116 0 197.5 -60.5t96.5 -171.5z" />
    <glyph glyph-name="D" unicode="D" horiz-adv-x="704" 
d="M173 634v-554h158q26 0 50.5 3.5t61.5 20t63 44.5t45.5 83t19.5 130q0 134 -56 203.5t-182 69.5h-160zM78 0v714h245q167 0 255 -85t88 -255q0 -374 -343 -374h-245z" />
    <glyph glyph-name="E" unicode="E" horiz-adv-x="611" 
d="M78 0v714h493v-80h-398v-227h371v-80h-371v-247h401v-80h-496z" />
    <glyph glyph-name="F" unicode="F" horiz-adv-x="574" 
d="M78 0v714h469v-80h-374v-227h328v-80h-328v-327h-95z" />
    <glyph glyph-name="G" unicode="G" horiz-adv-x="759" 
d="M637 0l-25 89q-40 -53 -101.5 -79.5t-127.5 -26.5q-103 0 -182 51.5t-118.5 132.5t-39.5 176q0 165 89 276.5t251 111.5q123 0 205.5 -58.5t101.5 -178.5h-95q-14 78 -71 117.5t-141 39.5q-121 0 -183 -88.5t-62 -214.5q0 -118 65.5 -201.5t179.5 -83.5q109 0 171 66
t58 167h-228v80h313v-376h-60z" />
    <glyph glyph-name="H" unicode="H" horiz-adv-x="722" 
d="M78 0v714h95v-307h376v307h95v-714h-95v327h-376v-327h-95z" />
    <glyph glyph-name="I" unicode="I" horiz-adv-x="259" 
d="M82 0v714h95v-714h-95z" />
    <glyph glyph-name="J" unicode="J" horiz-adv-x="519" 
d="M441 714v-536q0 -82 -50 -138.5t-161 -56.5q-100 0 -154 53.5t-54 154.5v44h95v-30q0 -69 25 -105.5t90 -36.5q62 0 88 33t26 96v522h95z" />
    <glyph glyph-name="K" unicode="K" horiz-adv-x="667" 
d="M78 0v714h95v-356l362 356h123l-301 -288l313 -426h-120l-258 361l-119 -111v-250h-95z" />
    <glyph glyph-name="L" unicode="L" 
d="M78 0v714h95v-634h378v-80h-473z" />
    <glyph glyph-name="M" unicode="M" horiz-adv-x="871" 
d="M80 0v714h130l225 -600l226 600h130v-714h-90v594h-2l-223 -594h-81l-223 594h-2v-594h-90z" />
    <glyph glyph-name="N" unicode="N" horiz-adv-x="722" 
d="M77 0v714h101l376 -579h2v579h90v-714h-104l-373 573h-2v-573h-90z" />
    <glyph glyph-name="O" unicode="O" horiz-adv-x="760" 
d="M133 357q0 -76 24.5 -140.5t82 -109t140.5 -44.5t140.5 44.5t82 109t24.5 140.5t-24.5 140.5t-82 109t-140.5 44.5t-140.5 -44.5t-82 -109t-24.5 -140.5zM38 357q0 100 37 183.5t116.5 137t188.5 53.5t188.5 -53.5t116.5 -137t37 -183.5t-37 -183.5t-116.5 -137
t-188.5 -53.5t-188.5 53.5t-116.5 137t-37 183.5z" />
    <glyph glyph-name="P" unicode="P" horiz-adv-x="648" 
d="M173 634v-262h186q156 -1 156 131q0 131 -156 131h-186zM78 0v714h313q106 0 162.5 -55t56.5 -156t-56.5 -156.5t-162.5 -54.5h-218v-292h-95z" />
    <glyph glyph-name="Q" unicode="Q" horiz-adv-x="760" 
d="M400 146l50 58l95 -76q82 82 82 229q0 76 -24.5 140.5t-82 109t-140.5 44.5t-140.5 -44.5t-82 -109t-24.5 -140.5t24.5 -140.5t82 -109t140.5 -44.5q51 0 99 20zM708 -2l-48 -60l-109 88q-71 -43 -171 -43q-109 0 -188.5 53.5t-116.5 137t-37 183.5t37 183.5t116.5 137
t188.5 53.5t188.5 -53.5t116.5 -137t37 -183.5q0 -177 -108 -284z" />
    <glyph glyph-name="R" unicode="R" horiz-adv-x="685" 
d="M78 0v714h336q101 0 159 -50.5t58 -136.5q0 -68 -30.5 -116t-93.5 -65v-2q56 -11 78 -47.5t29 -99.5q1 -9 2.5 -40.5t3 -46t5.5 -38.5t12 -41t19 -31h-106q-12 13 -15 40.5t-4.5 68t-6.5 67.5q-5 31 -10.5 50t-18 39.5t-35 30t-55.5 9.5h-232v-305h-95zM173 385h198
q76 0 120.5 27.5t44.5 99.5q0 56 -31.5 89t-95.5 33h-236v-249z" />
    <glyph glyph-name="S" unicode="S" horiz-adv-x="648" 
d="M581 505h-90q-16 146 -177 146q-69 0 -114.5 -28.5t-45.5 -93.5q0 -35 25 -58.5t65.5 -35.5t89 -22t97.5 -24t89.5 -34.5t65.5 -61t25 -97.5q0 -72 -44 -122t-104.5 -70.5t-130.5 -20.5q-128 0 -211.5 64t-83.5 188h90q0 -85 60 -128.5t148 -43.5q76 0 128.5 30t52.5 100
q0 54 -47 83.5t-114 42.5t-134.5 29.5t-114.5 59t-47 114.5q0 102 76 155.5t183 53.5q116 0 187.5 -56.5t75.5 -169.5z" />
    <glyph glyph-name="T" unicode="T" horiz-adv-x="574" 
d="M240 0v634h-238v80h571v-80h-238v-634h-95z" />
    <glyph glyph-name="U" unicode="U" horiz-adv-x="722" 
d="M648 714v-456q0 -135 -73 -205t-208 -70q-142 0 -217.5 68t-75.5 207v456h95v-456q0 -95 51 -145t147 -50q91 0 138.5 50t47.5 145v456h95z" />
    <glyph glyph-name="V" unicode="V" horiz-adv-x="611" 
d="M613 714l-254 -714h-108l-252 714h103l204 -619h2l206 619h99z" />
    <glyph glyph-name="W" unicode="W" horiz-adv-x="926" 
d="M914 714l-191 -714h-99l-163 600h-2l-165 -600h-99l-183 714h97l140 -594h2l160 594h103l158 -594h2l145 594h95z" />
    <glyph glyph-name="X" unicode="X" horiz-adv-x="611" 
d="M-1 0l249 367l-235 347h114l178 -279l186 279h106l-236 -347l251 -367h-116l-192 295l-198 -295h-107z" />
    <glyph glyph-name="Y" unicode="Y" horiz-adv-x="648" 
d="M646 714l-273 -422v-292h-95v292l-276 422h113l214 -340l209 340h108z" />
    <glyph glyph-name="Z" unicode="Z" horiz-adv-x="611" 
d="M22 0v80l444 554h-410v80h522v-80l-443 -554h455v-80h-568z" />
    <glyph glyph-name="bracketleft" unicode="[" horiz-adv-x="259" 
d="M259 731v-68h-107v-793h107v-68h-187v929h187z" />
    <glyph glyph-name="backslash" unicode="\" horiz-adv-x="333" 
d="M55 731l296 -748h-73l-296 748h73z" />
    <glyph glyph-name="bracketright" unicode="]" horiz-adv-x="259" 
d="M0 -198v68h107v793h-107v68h187v-929h-187z" />
    <glyph glyph-name="asciicircum" unicode="^" horiz-adv-x="600" 
d="M50 264l218 433h64l218 -433h-70l-181 360l-178 -360h-71z" />
    <glyph glyph-name="underscore" unicode="_" horiz-adv-x="500" 
d="M0 -125v50h500v-50h-500z" />
    <glyph glyph-name="grave" unicode="`" horiz-adv-x="222" 
d="M108 589l-131 143h109l86 -143h-64z" />
    <glyph glyph-name="a" unicode="a" horiz-adv-x="537" 
d="M522 68v-66q-23 -14 -61 -14q-72 0 -72 80q-67 -80 -182 -80q-76 0 -123.5 35.5t-47.5 109.5q0 42 14 71.5t41.5 46.5t54 25.5t65.5 15.5q19 4 45 8t42 6t34.5 6.5t28.5 11t17 17.5t7 27q0 86 -115 86q-124 0 -129 -98h-85q4 90 64 131.5t155 41.5q194 0 194 -142v-266
q0 -35 4 -46.5t23 -11.5q11 0 26 5zM384 180v87q-20 -15 -67 -23t-87 -12t-72 -26.5t-32 -66.5q0 -39 28.5 -57.5t71.5 -18.5q77 0 117.5 37t40.5 80z" />
    <glyph glyph-name="b" unicode="b" horiz-adv-x="593" 
d="M67 0v714h85v-267h2q40 82 165 82q114 0 176 -78t62 -194t-61 -192.5t-175 -76.5q-46 0 -94 19.5t-73 61.5h-2v-69h-85zM467 263q0 79 -41 135t-119 56q-80 0 -119 -57t-39 -138q0 -83 40.5 -139.5t122.5 -56.5q81 0 118 57.5t37 142.5z" />
    <glyph glyph-name="c" unicode="c" horiz-adv-x="537" 
d="M503 351h-88q-21 103 -128 103q-85 0 -123 -57t-38 -145q0 -80 37.5 -134.5t113.5 -54.5q124 0 142 126h87q-14 -96 -72.5 -148.5t-155.5 -52.5q-116 0 -179 72.5t-63 191.5q0 122 63 199.5t181 77.5q93 0 153.5 -44.5t69.5 -133.5z" />
    <glyph glyph-name="d" unicode="d" horiz-adv-x="593" 
d="M126 254q0 -79 41 -135t119 -56q80 0 119 57t39 138q0 83 -40.5 139.5t-122.5 56.5q-81 0 -118 -57.5t-37 -142.5zM526 714v-714h-85v70h-2q-40 -82 -165 -82q-114 0 -176 78t-62 194t61.5 192.5t174.5 76.5q46 0 94 -19.5t73 -61.5h2v266h85z" />
    <glyph glyph-name="e" unicode="e" horiz-adv-x="537" 
d="M126 308h297q-4 62 -45.5 104t-103.5 42q-64 0 -104 -42t-44 -104zM421 164h84q-17 -85 -74.5 -130.5t-146.5 -45.5q-119 0 -181.5 74t-66.5 198q0 117 68.5 193t174.5 76q53 0 95 -19t68 -49t43 -70t23.5 -79.5t4.5 -78.5h-387q-2 -72 39 -121t122 -49q112 0 134 101z
" />
    <glyph glyph-name="f" unicode="f" horiz-adv-x="296" 
d="M99 0v442h-87v75h87v77q0 63 36.5 95.5t106.5 32.5q29 0 55 -8v-74q-21 7 -48 7q-33 0 -49 -13t-16 -45v-72h100v-75h-100v-442h-85z" />
    <glyph glyph-name="g" unicode="g" horiz-adv-x="574" 
d="M510 517v-473q0 -128 -59 -191t-181 -63q-53 0 -98 14t-79.5 49.5t-36.5 88.5h85q2 -42 43.5 -63t90.5 -21q155 0 155 196v34h-2q-21 -45 -65 -69.5t-96 -24.5q-110 0 -170.5 75t-60.5 187q0 49 12.5 94.5t39 87t75 66.5t112.5 25q107 0 154 -86h1v74h80zM272 69
q78 0 116 59t38 141q0 77 -36.5 131t-110.5 54q-77 0 -115 -53.5t-38 -134.5q0 -51 12.5 -93t46.5 -73t87 -31z" />
    <glyph glyph-name="h" unicode="h" 
d="M64 0v714h85v-273h2q19 44 65.5 66t97.5 22q96 0 137 -49.5t41 -139.5v-340h-85v350q0 48 -28 76t-77 28q-75 0 -114 -44.5t-39 -117.5v-292h-85z" />
    <glyph glyph-name="i" unicode="i" horiz-adv-x="222" 
d="M154 714v-104h-85v104h85zM69 0v517h85v-517h-85z" />
    <glyph glyph-name="j" unicode="j" horiz-adv-x="222" 
d="M154 714v-104h-85v104h85zM154 517v-583q0 -132 -124 -132q-24 0 -44 4v73q12 -2 17 -2h18q28 0 38 15.5t10 55.5v569h85z" />
    <glyph glyph-name="k" unicode="k" horiz-adv-x="519" 
d="M69 0v714h85v-423l236 226h114l-205 -188l220 -329h-108l-177 270l-80 -74v-196h-85z" />
    <glyph glyph-name="l" unicode="l" horiz-adv-x="222" 
d="M69 0v714h85v-714h-85z" />
    <glyph glyph-name="m" unicode="m" horiz-adv-x="853" 
d="M64 0v517h80v-76h2q58 88 167 88q113 0 142 -88q26 42 69 65t93 23q172 0 172 -150v-379h-85v339q0 55 -21 85t-79 30q-62 0 -98.5 -36t-36.5 -96v-322h-85v339q0 55 -21.5 85t-75.5 30q-66 0 -102 -45.5t-36 -86.5v-322h-85z" />
    <glyph glyph-name="n" unicode="n" 
d="M64 0v517h80v-82h2q53 94 168 94q96 0 137 -49.5t41 -139.5v-340h-85v350q0 48 -28 76t-77 28q-75 0 -114 -44.5t-39 -117.5v-292h-85z" />
    <glyph glyph-name="o" unicode="o" horiz-adv-x="574" 
d="M126 258q0 -91 46 -143t115 -52t115 52t46 143t-46 143.5t-115 52.5t-115 -52.5t-46 -143.5zM36 258q0 119 66 195t185 76t185 -76t66 -195q0 -118 -66 -194t-185 -76t-185 76t-66 194z" />
    <glyph glyph-name="p" unicode="p" horiz-adv-x="593" 
d="M67 -198v715h85v-70h2q40 82 165 82q114 0 176 -78t62 -194t-61 -192.5t-175 -76.5q-46 0 -94 19.5t-73 61.5h-2v-267h-85zM467 263q0 79 -41 135t-119 56q-80 0 -119 -57t-39 -138q0 -83 40.5 -139.5t122.5 -56.5q81 0 118 57.5t37 142.5z" />
    <glyph glyph-name="q" unicode="q" horiz-adv-x="593" 
d="M126 254q0 -79 41 -135t119 -56q80 0 119 57t39 138q0 83 -40.5 139.5t-122.5 56.5q-81 0 -118 -57.5t-37 -142.5zM526 517v-715h-85v268h-2q-40 -82 -165 -82q-114 0 -176 78t-62 194t61.5 192.5t174.5 76.5q46 0 94 -19.5t73 -61.5h2v69h85z" />
    <glyph glyph-name="r" unicode="r" horiz-adv-x="333" 
d="M61 0v517h80v-109h2q31 64 76.5 93.5t113.5 27.5v-90q-99 0 -143 -53t-44 -156v-230h-85z" />
    <glyph glyph-name="s" unicode="s" horiz-adv-x="500" 
d="M31 163h85q2 -53 41 -76.5t98 -23.5q125 0 125 77q0 31 -25 50.5t-62.5 27t-81.5 18.5t-81.5 24t-62.5 44t-25 78q0 72 58 109.5t135 37.5q95 0 150.5 -36.5t61.5 -125.5h-85q-2 31 -21 51.5t-44 28t-55 7.5q-46 0 -78 -15t-32 -51q0 -10 3 -18.5t9.5 -15t13.5 -12
t19 -10.5t21 -8.5t24.5 -7.5t25 -6t27 -6t26.5 -6q37 -8 63 -17.5t52.5 -25.5t40 -42.5t13.5 -61.5q0 -85 -64.5 -124t-155.5 -39q-95 0 -155 42.5t-64 132.5z" />
    <glyph glyph-name="t" unicode="t" horiz-adv-x="315" 
d="M182 672v-155h103v-75h-103v-321q0 -30 12 -38t52 -8h39v-75h-65q-69 0 -96 22.5t-27 90.5v329h-88v75h88v155h85z" />
    <glyph glyph-name="u" unicode="u" 
d="M492 517v-517h-80v82h-2q-53 -94 -168 -94q-96 0 -137 49.5t-41 139.5v340h85v-350q0 -48 28 -76t77 -28q75 0 114 44.5t39 117.5v292h85z" />
    <glyph glyph-name="v" unicode="v" horiz-adv-x="500" 
d="M486 517l-189 -517h-91l-192 517h95l145 -431h2l141 431h89z" />
    <glyph glyph-name="w" unicode="w" horiz-adv-x="758" 
d="M741 517l-165 -517h-90l-105 411h-2l-104 -411h-92l-166 517h94l117 -423h2l104 423h93l108 -423h2l116 423h88z" />
    <glyph glyph-name="x" unicode="x" horiz-adv-x="518" 
d="M9 0l194 272l-180 245h109l124 -181l129 181h102l-178 -238l200 -279h-109l-144 214l-144 -214h-103z" />
    <glyph glyph-name="y" unicode="y" horiz-adv-x="500" 
d="M492 517l-225 -586q-31 -77 -62.5 -107.5t-87.5 -30.5q-35 0 -59 9v78q38 -12 50 -12q46 0 70 47l35 88l-205 514h96l151 -423h2l145 423h90z" />
    <glyph glyph-name="z" unicode="z" horiz-adv-x="480" 
d="M22 0v65l312 377h-292v75h402v-58l-316 -384h330v-75h-436z" />
    <glyph glyph-name="braceleft" unicode="{" horiz-adv-x="333" 
d="M309 731v-60h-50q-48 0 -48 -86v-183q0 -61 -30 -94.5t-57 -39.5v-3q28 -4 57.5 -36t29.5 -98v-183q0 -86 48 -86h50v-60h-70q-41 0 -74.5 35.5t-33.5 95.5v182q0 53 -24.5 85t-58.5 32v68q33 0 58 33.5t25 84.5v182q0 60 33.5 95.5t74.5 35.5h70z" />
    <glyph glyph-name="bar" unicode="|" horiz-adv-x="222" 
d="M77 -214v1000h68v-1000h-68z" />
    <glyph glyph-name="braceright" unicode="}" horiz-adv-x="333" 
d="M24 -198v60h50q48 0 48 86v183q0 61 30 94.5t57 39.5v3q-28 4 -57.5 36t-29.5 98v181q0 88 -48 88h-50v60h70q41 0 74.5 -35.5t33.5 -95.5v-182q0 -53 24.5 -85.5t58.5 -32.5v-68q-33 0 -58 -33.5t-25 -83.5v-182q0 -60 -33.5 -95.5t-74.5 -35.5h-70z" />
    <glyph glyph-name="asciitilde" unicode="~" horiz-adv-x="600" 
d="M495 319l36 -50q-27 -41 -55 -63.5t-70 -22.5q-45 0 -102 33q-66 39 -115 39t-84 -76l-36 50q42 86 125 86q38 0 111 -32q10 -4 34.5 -16.5t40 -18t27.5 -5.5q7 0 14.5 2t13 4.5t12 8.5t10.5 9.5t10.5 12t9 12.5t9.5 14t9 13z" />
    <glyph glyph-name="Euro" 
d="M558 662l-46 -83q-70 69 -143 69q-75 0 -124 -64q-40 -52 -56 -134h283l-27 -61h-263q-1 -5 -1 -16v-15v-11q0 -7 1 -10h249l-26 -61h-218q33 -215 190 -215q48 0 85 19q26 13 69 53v-105q-68 -44 -154 -44q-245 0 -287 292h-77l27 61h46q-1 3 -1 10v10v17q0 10 1 15h-73
l26 61h54q24 124 91 194q75 81 193 81q91 0 181 -63z" />
    <glyph glyph-name="Euro" unicode="&#x20ac;" 
d="M558 662l-46 -83q-70 69 -143 69q-75 0 -124 -64q-40 -52 -56 -134h283l-27 -61h-263q-1 -5 -1 -16v-15v-11q0 -7 1 -10h249l-26 -61h-218q33 -215 190 -215q48 0 85 19q26 13 69 53v-105q-68 -44 -154 -44q-245 0 -287 292h-77l27 61h46q-1 3 -1 10v10v17q0 10 1 15h-73
l26 61h54q24 124 91 194q75 81 193 81q91 0 181 -63z" />
    <glyph glyph-name="uni00A0" unicode="&#xa0;" horiz-adv-x="278" 
 />
    <glyph glyph-name="exclamdown" unicode="&#xa1;" horiz-adv-x="259" 
d="M185 517v-111h-111v111h111zM82 -198v220l25 311h45l25 -311v-220h-95z" />
    <glyph glyph-name="cent" unicode="&#xa2;" 
d="M272 -116v104q-107 4 -166.5 77t-59.5 187q0 113 59 191t167 86v95h39v-95q85 -2 138.5 -46t64.5 -132h-87q-10 47 -39.5 74t-76.5 29v-391q102 10 121 126h85q-9 -81 -63.5 -141t-142.5 -60v-104h-39zM272 63v391q-72 -9 -104 -64.5t-32 -137.5q0 -76 34 -129.5
t102 -59.5z" />
    <glyph glyph-name="sterling" unicode="&#xa3;" 
d="M47 327v45h58q-47 78 -47 156q0 92 66.5 147.5t161.5 55.5q113 0 175.5 -65.5t60.5 -192.5h-85q-5 183 -146 183q-60 0 -101.5 -37.5t-41.5 -93.5q0 -19 2.5 -35.5t9 -33.5t11 -27t15 -30t14.5 -27h159v-45h-137q20 -38 20 -75q0 -32 -9 -59t-28 -51.5t-35 -39t-44 -38.5
l2 -2q68 29 105 29t95 -15q61 -18 84 -18q42 0 89 37l43 -66q-53 -46 -146 -46q-35 0 -99 20q-63 21 -105 21q-48 0 -100 -35l-47 66q47 32 78.5 78.5t31.5 100.5q0 37 -25 93h-85z" />
    <glyph glyph-name="currency" unicode="&#xa4;" 
d="M281 524q-71 0 -119.5 -50.5t-48.5 -124.5q0 -73 48.5 -123t118.5 -50q69 0 116 51t47 124q0 71 -47 122t-115 51zM25 555l49 49l56 -56q62 51 151 51q85 0 143 -50l57 56l50 -51l-55 -55q52 -55 52 -148q0 -89 -52 -150l55 -56l-47 -47l-56 58q-60 -55 -148 -55
q-92 0 -152 54l-55 -58l-48 48l55 58q-52 63 -52 146q0 94 54 148z" />
    <glyph glyph-name="yen" unicode="&#xa5;" 
d="M232 0v174h-141v60h141v42l-18 33h-123v60h92l-183 345h109l174 -353l169 353h104l-178 -345h93v-60h-126l-18 -33v-42h144v-60h-144v-174h-95z" />
    <glyph glyph-name="brokenbar" unicode="&#xa6;" horiz-adv-x="222" 
d="M145 661v-250h-68v250h68zM77 -89v250h68v-250h-68z" />
    <glyph glyph-name="section" unicode="&#xa7;" 
d="M465 546h-85q-1 48 -28 79t-73 31q-42 0 -68.5 -22t-26.5 -64q0 -21 11 -39.5t35.5 -36.5t45 -30t57.5 -32q11 -6 17 -9q38 -21 62 -36.5t51 -39.5t40 -53.5t13 -64.5q0 -49 -29 -89t-75 -58q59 -44 59 -120q0 -71 -52.5 -115.5t-134.5 -44.5q-89 0 -142 50.5t-59 138.5
h85q1 -51 32 -82.5t82 -31.5q40 0 70.5 22t30.5 61q0 11 -3 21.5t-9.5 20.5t-13 18t-19 17.5t-21 16t-25 16t-26 15t-29 16t-28.5 15.5q-39 21 -64.5 37.5t-53.5 42.5t-42 58t-14 71q0 46 31 86t76 52q-46 49 -46 106q0 74 55.5 118t129.5 44q84 0 133 -47t51 -138zM190 420
q-31 -10 -52 -35t-21 -56q0 -10 1.5 -19.5t6.5 -18.5t8 -15.5t12 -14.5t13 -12t15.5 -11.5t15 -10t17.5 -11t16 -9.5q80 -42 140 -83q72 30 72 93q0 12 -3 22.5t-11.5 21.5t-13.5 17.5t-19.5 17t-18.5 13.5t-21.5 14t-18.5 12q-108 64 -138 85z" />
    <glyph glyph-name="dieresis" unicode="&#xa8;" horiz-adv-x="222" 
d="M-28 602v104h90v-104h-90zM160 602v104h90v-104h-90z" />
    <glyph glyph-name="copyright" unicode="&#xa9;" horiz-adv-x="800" 
d="M535 285h64q-16 -72 -66.5 -114.5t-119.5 -42.5q-100 0 -161 64.5t-61 164.5q0 102 59 165t160 63q74 0 125 -39.5t63 -112.5h-63q-8 43 -41.5 70t-82.5 27q-72 0 -112 -48t-40 -123q0 -73 42 -124.5t112 -51.5q49 0 82 28t40 74zM92 359q0 -137 88.5 -229t220.5 -92
q130 0 218.5 92t88.5 229q0 134 -88.5 225.5t-218.5 91.5q-132 0 -220.5 -91.5t-88.5 -225.5zM24 359q0 157 111 264.5t266 107.5t265 -107.5t110 -264.5q0 -159 -110 -267.5t-265 -108.5q-156 0 -266.5 108.5t-110.5 267.5z" />
    <glyph glyph-name="ordfeminine" unicode="&#xaa;" horiz-adv-x="378" 
d="M155 430q51 0 76.5 21t25.5 48v47q-9 -6 -24 -9.5t-41.5 -7.5t-34.5 -6q-32 -6 -48 -17t-16 -35q0 -41 62 -41zM317 622v-160q0 -32 14 -32h11q5 0 11 2v-44q-21 -8 -43 -8q-48 0 -51 46q-43 -46 -117 -46q-51 0 -84 22.5t-33 66.5q0 48 34.5 71.5t85.5 27.5
q75 9 95 15.5t20 26.5q0 30 -20.5 39.5t-56.5 9.5q-79 0 -83 -56h-60q2 54 43.5 80t103.5 26q130 0 130 -87z" />
    <glyph glyph-name="guillemotleft" unicode="&#xab;" horiz-adv-x="463" 
d="M202 114l-152 120v88l152 120v-86l-100 -78l100 -78v-86zM398 114l-152 120v88l152 120v-86l-100 -78l100 -78v-86z" />
    <glyph glyph-name="logicalnot" unicode="&#xac;" horiz-adv-x="600" 
d="M552 388v-279h-68v211h-436v68h504z" />
    <glyph glyph-name="uni00AD" unicode="&#xad;" horiz-adv-x="389" 
d="M50 238v80h289v-80h-289z" />
    <glyph glyph-name="registered" unicode="&#xae;" horiz-adv-x="800" 
d="M323 521v-139h71q22 0 35.5 1t30.5 4.5t26.5 11t16 21.5t6.5 34q0 67 -96 67h-90zM255 139v437h169q153 0 153 -125q0 -107 -115 -119l125 -193h-73l-119 188h-72v-188h-68zM92 359q0 -137 88.5 -229t220.5 -92q130 0 218.5 92t88.5 229q0 134 -88.5 225.5t-218.5 91.5
q-132 0 -220.5 -91t-88.5 -226zM24 359q0 157 111 264.5t266 107.5t265 -107.5t110 -264.5q0 -159 -110 -267.5t-265 -108.5q-156 0 -266.5 108.5t-110.5 267.5z" />
    <glyph glyph-name="macron" unicode="&#xaf;" horiz-adv-x="222" 
d="M-59 627v55h341v-55h-341z" />
    <glyph glyph-name="degree" unicode="&#xb0;" horiz-adv-x="400" 
d="M106 565q0 -37 26 -65.5t68 -28.5t68 28.5t26 65.5t-26 65.5t-68 28.5t-68 -28.5t-26 -65.5zM56 565q0 60 42 102t102 42q59 0 101.5 -42.5t42.5 -101.5q0 -60 -42 -102t-102 -42q-61 0 -102.5 41.5t-41.5 102.5z" />
    <glyph glyph-name="plusminus" unicode="&#xb1;" horiz-adv-x="600" 
d="M48 0v68h504v-68h-504zM48 271v68h218v166h68v-166h218v-68h-218v-167h-68v167h-218z" />
    <glyph glyph-name="twosuperior" unicode="&#xb2;" horiz-adv-x="333" 
d="M90 555h-68q0 69 42 111.5t111 42.5q63 0 105.5 -34t42.5 -92q0 -50 -30 -82.5t-83 -62.5q-11 -7 -33.5 -19.5t-34 -20t-26.5 -18.5t-23 -22t-11 -23h235v-55h-303q2 36 11.5 63.5t29.5 48t37 32.5t47 30q67 40 91.5 64t24.5 66q0 32 -23.5 51t-59.5 19q-42 0 -62 -28
t-20 -71z" />
    <glyph glyph-name="threesuperior" unicode="&#xb3;" horiz-adv-x="333" 
d="M132 477v50h24q36 0 59.5 16t23.5 49q0 29 -21.5 45.5t-55.5 16.5q-40 0 -60 -23.5t-20 -62.5h-68q4 66 43 103.5t105 37.5q65 0 105 -30.5t40 -86.5q0 -28 -19.5 -50.5t-48.5 -34.5v-2q43 -8 65 -35t22 -67q0 -63 -47 -96.5t-115 -33.5q-70 0 -115 37t-45 104h68
q2 -86 92 -86q40 0 67 19.5t27 52.5q0 39 -27 58t-66 19h-33z" />
    <glyph glyph-name="acute" unicode="&#xb4;" horiz-adv-x="222" 
d="M50 589l86 143h109l-131 -143h-64z" />
    <glyph glyph-name="mu" unicode="&#xb5;" 
d="M492 517v-517h-80v82h-2q-53 -94 -168 -94q-67 0 -91 38h-2v-224h-85v715h85v-350q0 -48 28 -76t77 -28q75 0 114 44.5t39 117.5v292h85z" />
    <glyph glyph-name="paragraph" unicode="&#xb6;" horiz-adv-x="600" 
d="M515 714v-869h-68v814h-122v-814h-68v477q-91 0 -150 53.5t-59 132.5q0 98 61 152t167 54h239z" />
    <glyph glyph-name="periodcentered" unicode="&#xb7;" horiz-adv-x="278" 
d="M75 311q0 26 19 45t45 19t45 -19t19 -45q0 -24 -19.5 -44t-43.5 -20q-26 0 -45.5 19t-19.5 45z" />
    <glyph glyph-name="cedilla" unicode="&#xb8;" horiz-adv-x="222" 
d="M5 -191l18 44q30 -13 61 -13q24 0 43 7.5t19 23.5q0 14 -13 22.5t-34 8.5q-17 0 -41 -8l-17 28l61 78h42l-42 -53l2 -2q10 7 33 7q35 0 59.5 -19t24.5 -54q0 -46 -37.5 -67.5t-86.5 -21.5q-38 0 -92 19z" />
    <glyph glyph-name="onesuperior" unicode="&#xb9;" horiz-adv-x="333" 
d="M249 709v-429h-68v308h-115v50q116 0 133 71h50z" />
    <glyph glyph-name="ordmasculine" unicode="&#xba;" horiz-adv-x="384" 
d="M192 659q-44 0 -71.5 -29.5t-27.5 -86.5q0 -49 24.5 -81t75.5 -32q50 0 74 31.5t24 80.5q0 65 -29 91t-70 26zM192 709q79 0 123 -46.5t44 -119.5q0 -74 -43 -118.5t-123 -44.5q-78 0 -123 45t-45 118q0 72 44.5 119t122.5 47z" />
    <glyph glyph-name="guillemotright" unicode="&#xbb;" horiz-adv-x="463" 
d="M261 442l152 -120v-88l-152 -120v86l100 78l-100 78v86zM65 442l152 -120v-88l-152 -120v86l100 78l-100 78v86z" />
    <glyph glyph-name="onequarter" unicode="&#xbc;" horiz-adv-x="834" 
d="M219 709v-429h-68v308h-115v50q117 0 133 71h50zM150 -28l435 753h64l-435 -753h-64zM659 344l-148 -193h150v193h-2zM723 429v-278h60v-55h-60v-96h-62v96h-199v58l210 275h51z" />
    <glyph glyph-name="onehalf" unicode="&#xbd;" horiz-adv-x="834" 
d="M570 275h-68q0 69 42 111.5t111 42.5q63 0 105.5 -34t42.5 -92q0 -50 -30 -82.5t-83 -62.5q-11 -7 -33.5 -19.5t-34 -20t-26.5 -18.5t-23 -22t-11 -23h235v-55h-303q2 36 11.5 63.5t29.5 48t37 32.5t47 30q67 40 91.5 64t24.5 66q0 32 -23.5 51t-59.5 19q-42 0 -62 -28
t-20 -71zM219 709v-429h-68v308h-115v50q117 0 133 71h50zM135 -28l435 753h64l-435 -753h-64z" />
    <glyph glyph-name="threequarters" unicode="&#xbe;" horiz-adv-x="834" 
d="M177 477v50h24q36 0 59.5 16t23.5 49q0 29 -21.5 45.5t-55.5 16.5q-40 0 -60 -23.5t-20 -62.5h-68q4 66 43 103.5t105 37.5q65 0 105 -30.5t40 -86.5q0 -28 -19.5 -50.5t-48.5 -34.5v-2q43 -8 65 -35t22 -67q0 -63 -47 -96.5t-115 -33.5q-70 0 -115 37t-45 104h68
q2 -86 92 -86q40 0 67 19.5t27 52.5q0 39 -27 58t-66 19h-33zM215 -28l435 753h64l-435 -753h-64zM677 340l-148 -193h150v193h-2zM740 429v-278h60v-55h-60v-96h-62v96h-199v58l210 275h51z" />
    <glyph glyph-name="questiondown" unicode="&#xbf;" 
d="M337 517v-111h-111v111h111zM418 30h85q2 -104 -59.5 -172t-164.5 -68q-95 0 -153 53t-58 147q0 56 22 93t64 77q22 21 32.5 32t26 30.5t22 40.5t6.5 45v31h85v-39q-2 -39 -15.5 -71.5t-33 -52.5t-41 -42t-40 -41t-29.5 -48t-9 -63q4 -55 35.5 -86t85.5 -31q69 0 104 46
t35 119z" />
    <glyph glyph-name="Agrave" unicode="&#xc0;" horiz-adv-x="648" 
d="M322 628l-121 -333h242l-119 333h-2zM-7 0l279 714h105l279 -714h-105l-78 215h-302l-80 -215h-98zM309 779l-131 143h109l86 -143h-64z" />
    <glyph glyph-name="Aacute" unicode="&#xc1;" horiz-adv-x="648" 
d="M322 628l-121 -333h242l-119 333h-2zM-7 0l279 714h105l279 -714h-105l-78 215h-302l-80 -215h-98zM276 779l86 143h109l-131 -143h-64z" />
    <glyph glyph-name="Acircumflex" unicode="&#xc2;" horiz-adv-x="648" 
d="M322 628l-121 -333h242l-119 333h-2zM-7 0l279 714h105l279 -714h-105l-78 215h-302l-80 -215h-98zM176 779l103 143h93l104 -143h-84l-69 96l-70 -96h-77z" />
    <glyph glyph-name="Atilde" unicode="&#xc3;" horiz-adv-x="648" 
d="M322 628l-121 -333h242l-119 333h-2zM-7 0l279 714h105l279 -714h-105l-78 215h-302l-80 -215h-98zM445 907h52q-6 -44 -32 -79q-26 -32 -69 -32q-31 0 -75 20q-51 19 -66 19q-19 0 -31 -12q-9 -8 -18 -30h-52q23 110 106 110q28 0 73.5 -20t65.5 -20q33 0 46 44z" />
    <glyph glyph-name="Adieresis" unicode="&#xc4;" horiz-adv-x="648" 
d="M322 628l-121 -333h242l-119 333h-2zM-7 0l279 714h105l279 -714h-105l-78 215h-302l-80 -215h-98zM185 793v104h90v-104h-90zM373 793v104h90v-104h-90z" />
    <glyph glyph-name="Aring" unicode="&#xc5;" horiz-adv-x="648" 
d="M211 861q0 46 33.5 79t79.5 33t79.5 -33t33.5 -79t-33.5 -79t-79.5 -33t-79.5 33t-33.5 79zM257 860q0 -29 19 -48.5t48 -19.5t48 19.5t19 48.5t-19 48.5t-48 19.5t-48 -19.5t-19 -48.5zM322 628l-121 -333h242l-119 333h-2zM-7 0l279 714h105l279 -714h-105l-78 215
h-302l-80 -215h-98z" />
    <glyph glyph-name="AE" unicode="&#xc6;" horiz-adv-x="926" 
d="M448 634h-41l-168 -346h209v346zM-7 0l361 714h535v-80h-351v-227h330v-80h-330v-247h357v-80h-447v208h-246l-102 -208h-107z" />
    <glyph glyph-name="Ccedilla" unicode="&#xc7;" horiz-adv-x="722" 
d="M675 499h-95q-15 74 -69 113t-131 39q-120 0 -181 -83.5t-61 -205.5q0 -131 60.5 -215t182.5 -84q91 0 145.5 57.5t60.5 148.5h95q-14 -133 -92 -208t-209 -77l-29 -37l2 -2q10 7 33 7q35 0 59.5 -19t24.5 -54q0 -46 -37.5 -67.5t-86.5 -21.5q-38 0 -92 19l18 44
q30 -13 61 -13q24 0 43 7.5t19 23.5q0 14 -13 22.5t-34 8.5q-17 0 -41 -8l-17 28l49 63q-145 12 -221 113.5t-76 256.5q0 163 89.5 269.5t248.5 106.5q116 0 197.5 -60.5t96.5 -171.5z" />
    <glyph glyph-name="Egrave" unicode="&#xc8;" horiz-adv-x="611" 
d="M78 0v714h493v-80h-398v-227h371v-80h-371v-247h401v-80h-496zM299 779l-131 143h109l86 -143h-64z" />
    <glyph glyph-name="Eacute" unicode="&#xc9;" horiz-adv-x="611" 
d="M78 0v714h493v-80h-398v-227h371v-80h-371v-247h401v-80h-496zM284 779l86 143h109l-131 -143h-64z" />
    <glyph glyph-name="Ecircumflex" unicode="&#xca;" horiz-adv-x="611" 
d="M78 0v714h493v-80h-398v-227h371v-80h-371v-247h401v-80h-496zM175 779l103 143h93l104 -143h-84l-69 96l-70 -96h-77z" />
    <glyph glyph-name="Edieresis" unicode="&#xcb;" horiz-adv-x="611" 
d="M78 0v714h493v-80h-398v-227h371v-80h-371v-247h401v-80h-496zM189 792v104h90v-104h-90zM377 792v104h90v-104h-90z" />
    <glyph glyph-name="Igrave" unicode="&#xcc;" horiz-adv-x="259" 
d="M82 0v714h95v-714h-95zM113 779l-131 143h109l86 -143h-64z" />
    <glyph glyph-name="Iacute" unicode="&#xcd;" horiz-adv-x="259" 
d="M82 0v714h95v-714h-95zM83 779l86 143h109l-131 -143h-64z" />
    <glyph glyph-name="Icircumflex" unicode="&#xce;" horiz-adv-x="259" 
d="M82 0v714h95v-714h-95zM-16 779l103 143h93l104 -143h-84l-69 96l-70 -96h-77z" />
    <glyph glyph-name="Idieresis" unicode="&#xcf;" horiz-adv-x="259" 
d="M82 0v714h95v-714h-95zM-9 792v104h90v-104h-90zM179 792v104h90v-104h-90z" />
    <glyph glyph-name="Eth" unicode="&#xd0;" horiz-adv-x="704" 
d="M173 634v-227h214v-68h-214v-259h158q26 0 50.5 3.5t61.5 20t63 44.5t45.5 83t19.5 130q0 134 -56 203.5t-182 69.5h-160zM78 0v339h-70v68h70v307h245q167 0 255 -85t88 -255q0 -374 -343 -374h-245z" />
    <glyph glyph-name="Ntilde" unicode="&#xd1;" horiz-adv-x="722" 
d="M77 0v714h101l376 -579h2v579h90v-714h-104l-373 573h-2v-573h-90zM487 907h52q-6 -44 -32 -79q-26 -32 -69 -32q-31 0 -75 20q-51 19 -66 19q-19 0 -31 -12q-9 -8 -18 -30h-52q23 110 106 110q28 0 73.5 -20t65.5 -20q33 0 46 44z" />
    <glyph glyph-name="Ograve" unicode="&#xd2;" horiz-adv-x="760" 
d="M133 357q0 -76 24.5 -140.5t82 -109t140.5 -44.5t140.5 44.5t82 109t24.5 140.5t-24.5 140.5t-82 109t-140.5 44.5t-140.5 -44.5t-82 -109t-24.5 -140.5zM38 357q0 100 37 183.5t116.5 137t188.5 53.5t188.5 -53.5t116.5 -137t37 -183.5t-37 -183.5t-116.5 -137
t-188.5 -53.5t-188.5 53.5t-116.5 137t-37 183.5zM362 779l-131 143h109l86 -143h-64z" />
    <glyph glyph-name="Oacute" unicode="&#xd3;" horiz-adv-x="760" 
d="M133 357q0 -76 24.5 -140.5t82 -109t140.5 -44.5t140.5 44.5t82 109t24.5 140.5t-24.5 140.5t-82 109t-140.5 44.5t-140.5 -44.5t-82 -109t-24.5 -140.5zM38 357q0 100 37 183.5t116.5 137t188.5 53.5t188.5 -53.5t116.5 -137t37 -183.5t-37 -183.5t-116.5 -137
t-188.5 -53.5t-188.5 53.5t-116.5 137t-37 183.5zM325 779l86 143h109l-131 -143h-64z" />
    <glyph glyph-name="Ocircumflex" unicode="&#xd4;" horiz-adv-x="760" 
d="M133 357q0 -76 24.5 -140.5t82 -109t140.5 -44.5t140.5 44.5t82 109t24.5 140.5t-24.5 140.5t-82 109t-140.5 44.5t-140.5 -44.5t-82 -109t-24.5 -140.5zM38 357q0 100 37 183.5t116.5 137t188.5 53.5t188.5 -53.5t116.5 -137t37 -183.5t-37 -183.5t-116.5 -137
t-188.5 -53.5t-188.5 53.5t-116.5 137t-37 183.5zM232 779l103 143h93l104 -143h-84l-69 96l-70 -96h-77z" />
    <glyph glyph-name="Otilde" unicode="&#xd5;" horiz-adv-x="760" 
d="M133 357q0 -76 24.5 -140.5t82 -109t140.5 -44.5t140.5 44.5t82 109t24.5 140.5t-24.5 140.5t-82 109t-140.5 44.5t-140.5 -44.5t-82 -109t-24.5 -140.5zM38 357q0 100 37 183.5t116.5 137t188.5 53.5t188.5 -53.5t116.5 -137t37 -183.5t-37 -183.5t-116.5 -137
t-188.5 -53.5t-188.5 53.5t-116.5 137t-37 183.5zM502 907h52q-6 -44 -32 -79q-26 -32 -69 -32q-31 0 -75 20q-51 19 -66 19q-19 0 -31 -12q-9 -8 -18 -30h-52q23 110 106 110q28 0 73.5 -20t65.5 -20q33 0 46 44z" />
    <glyph glyph-name="Odieresis" unicode="&#xd6;" horiz-adv-x="760" 
d="M133 357q0 -76 24.5 -140.5t82 -109t140.5 -44.5t140.5 44.5t82 109t24.5 140.5t-24.5 140.5t-82 109t-140.5 44.5t-140.5 -44.5t-82 -109t-24.5 -140.5zM38 357q0 100 37 183.5t116.5 137t188.5 53.5t188.5 -53.5t116.5 -137t37 -183.5t-37 -183.5t-116.5 -137
t-188.5 -53.5t-188.5 53.5t-116.5 137t-37 183.5zM242 792v104h90v-104h-90zM430 792v104h90v-104h-90z" />
    <glyph glyph-name="multiply" unicode="&#xd7;" horiz-adv-x="600" 
d="M119 24l-48 48l182 182l-181 180l48 48l181 -180l180 180l48 -48l-180 -180l181 -182l-48 -48l-181 182z" />
    <glyph glyph-name="Oslash" unicode="&#xd8;" horiz-adv-x="760" 
d="M691 730l32 -30l-82 -90q81 -102 81 -253q0 -100 -37 -183.5t-116.5 -137t-188.5 -53.5q-138 0 -229 86l-81 -89l-33 30l84 92q-83 101 -83 255q0 100 37 183.5t116.5 137t188.5 53.5q142 0 232 -88zM579 541l-369 -407q63 -71 170 -71q83 0 140.5 44.5t82 109
t24.5 140.5q0 108 -48 184zM183 170l369 407q-64 74 -172 74q-83 0 -140.5 -44.5t-82 -109t-24.5 -140.5q0 -111 50 -187z" />
    <glyph glyph-name="Ugrave" unicode="&#xd9;" horiz-adv-x="722" 
d="M648 714v-456q0 -135 -73 -205t-208 -70q-142 0 -217.5 68t-75.5 207v456h95v-456q0 -95 51 -145t147 -50q91 0 138.5 50t47.5 145v456h95zM344 779l-131 143h109l86 -143h-64z" />
    <glyph glyph-name="Uacute" unicode="&#xda;" horiz-adv-x="722" 
d="M648 714v-456q0 -135 -73 -205t-208 -70q-142 0 -217.5 68t-75.5 207v456h95v-456q0 -95 51 -145t147 -50q91 0 138.5 50t47.5 145v456h95zM315 779l86 143h109l-131 -143h-64z" />
    <glyph glyph-name="Ucircumflex" unicode="&#xdb;" horiz-adv-x="722" 
d="M648 714v-456q0 -135 -73 -205t-208 -70q-142 0 -217.5 68t-75.5 207v456h95v-456q0 -95 51 -145t147 -50q91 0 138.5 50t47.5 145v456h95zM215 779l103 143h93l104 -143h-84l-69 96l-70 -96h-77z" />
    <glyph glyph-name="Udieresis" unicode="&#xdc;" horiz-adv-x="722" 
d="M648 714v-456q0 -135 -73 -205t-208 -70q-142 0 -217.5 68t-75.5 207v456h95v-456q0 -95 51 -145t147 -50q91 0 138.5 50t47.5 145v456h95zM223 792v104h90v-104h-90zM411 792v104h90v-104h-90z" />
    <glyph glyph-name="Yacute" unicode="&#xdd;" horiz-adv-x="648" 
d="M646 714l-273 -422v-292h-95v292l-276 422h113l214 -340l209 340h108zM294 779l86 143h109l-131 -143h-64z" />
    <glyph glyph-name="Thorn" unicode="&#xde;" horiz-adv-x="648" 
d="M173 520v-262h186q156 -1 156 130q0 132 -156 132h-186zM173 0h-95v714h95v-114h218q106 0 162.5 -55.5t56.5 -156.5t-56.5 -156t-162.5 -54h-218v-178z" />
    <glyph glyph-name="germandbls" unicode="&#xdf;" 
d="M64 0v531q0 90 54 145t144 55q81 0 144 -46.5t63 -128.5q0 -122 -104 -155v-2q65 -8 100.5 -59t35.5 -120q0 -103 -64.5 -167.5t-166.5 -64.5q-23 0 -43 4v74q11 -3 34 -3q69 0 109.5 40t40.5 106q0 91 -44.5 120.5t-139.5 29.5v68q66 -4 109 23.5t43 92.5q0 47 -32 80
t-79 33q-58 0 -88.5 -31t-30.5 -109v-516h-85z" />
    <glyph glyph-name="agrave" unicode="&#xe0;" horiz-adv-x="537" 
d="M522 68v-66q-23 -14 -61 -14q-72 0 -72 80q-67 -80 -182 -80q-76 0 -123.5 35.5t-47.5 109.5q0 42 14 71.5t41.5 46.5t54 25.5t65.5 15.5q19 4 45 8t42 6t34.5 6.5t28.5 11t17 17.5t7 27q0 86 -115 86q-124 0 -129 -98h-85q4 90 64 131.5t155 41.5q194 0 194 -142v-266
q0 -35 4 -46.5t23 -11.5q11 0 26 5zM384 180v87q-20 -15 -67 -23t-87 -12t-72 -26.5t-32 -66.5q0 -39 28.5 -57.5t71.5 -18.5q77 0 117.5 37t40.5 80zM271 589l-131 143h109l86 -143h-64z" />
    <glyph glyph-name="aacute" unicode="&#xe1;" horiz-adv-x="537" 
d="M522 68v-66q-23 -14 -61 -14q-72 0 -72 80q-67 -80 -182 -80q-76 0 -123.5 35.5t-47.5 109.5q0 42 14 71.5t41.5 46.5t54 25.5t65.5 15.5q19 4 45 8t42 6t34.5 6.5t28.5 11t17 17.5t7 27q0 86 -115 86q-124 0 -129 -98h-85q4 90 64 131.5t155 41.5q194 0 194 -142v-266
q0 -35 4 -46.5t23 -11.5q11 0 26 5zM384 180v87q-20 -15 -67 -23t-87 -12t-72 -26.5t-32 -66.5q0 -39 28.5 -57.5t71.5 -18.5q77 0 117.5 37t40.5 80zM232 589l86 143h109l-131 -143h-64z" />
    <glyph glyph-name="acircumflex" unicode="&#xe2;" horiz-adv-x="537" 
d="M522 68v-66q-23 -14 -61 -14q-72 0 -72 80q-67 -80 -182 -80q-76 0 -123.5 35.5t-47.5 109.5q0 42 14 71.5t41.5 46.5t54 25.5t65.5 15.5q19 4 45 8t42 6t34.5 6.5t28.5 11t17 17.5t7 27q0 86 -115 86q-124 0 -129 -98h-85q4 90 64 131.5t155 41.5q194 0 194 -142v-266
q0 -35 4 -46.5t23 -11.5q11 0 26 5zM384 180v87q-20 -15 -67 -23t-87 -12t-72 -26.5t-32 -66.5q0 -39 28.5 -57.5t71.5 -18.5q77 0 117.5 37t40.5 80zM124 589l103 143h93l104 -143h-84l-69 96l-70 -96h-77z" />
    <glyph glyph-name="atilde" unicode="&#xe3;" horiz-adv-x="537" 
d="M522 68v-66q-23 -14 -61 -14q-72 0 -72 80q-67 -80 -182 -80q-76 0 -123.5 35.5t-47.5 109.5q0 42 14 71.5t41.5 46.5t54 25.5t65.5 15.5q19 4 45 8t42 6t34.5 6.5t28.5 11t17 17.5t7 27q0 86 -115 86q-124 0 -129 -98h-85q4 90 64 131.5t155 41.5q194 0 194 -142v-266
q0 -35 4 -46.5t23 -11.5q11 0 26 5zM384 180v87q-20 -15 -67 -23t-87 -12t-72 -26.5t-32 -66.5q0 -39 28.5 -57.5t71.5 -18.5q77 0 117.5 37t40.5 80zM395 717h52q-6 -44 -32 -79q-26 -32 -69 -32q-31 0 -75 20q-51 19 -66 19q-19 0 -31 -12q-9 -8 -18 -30h-52
q23 110 106 110q28 0 73.5 -20t65.5 -20q33 0 46 44z" />
    <glyph glyph-name="adieresis" unicode="&#xe4;" horiz-adv-x="537" 
d="M133 602v104h90v-104h-90zM321 602v104h90v-104h-90zM522 68v-66q-23 -14 -61 -14q-72 0 -72 80q-67 -80 -182 -80q-76 0 -123.5 35.5t-47.5 109.5q0 42 14 71.5t41.5 46.5t54 25.5t65.5 15.5q19 4 45 8t42 6t34.5 6.5t28.5 11t17 17.5t7 27q0 86 -115 86
q-124 0 -129 -98h-85q4 90 64 131.5t155 41.5q194 0 194 -142v-266q0 -35 4 -46.5t23 -11.5q11 0 26 5zM384 180v87q-20 -15 -67 -23t-87 -12t-72 -26.5t-32 -66.5q0 -39 28.5 -57.5t71.5 -18.5q77 0 117.5 37t40.5 80z" />
    <glyph glyph-name="aring" unicode="&#xe5;" horiz-adv-x="537" 
d="M522 68v-66q-23 -14 -61 -14q-72 0 -72 80q-67 -80 -182 -80q-76 0 -123.5 35.5t-47.5 109.5q0 42 14 71.5t41.5 46.5t54 25.5t65.5 15.5q19 4 45 8t42 6t34.5 6.5t28.5 11t17 17.5t7 27q0 86 -115 86q-124 0 -129 -98h-85q4 90 64 131.5t155 41.5q194 0 194 -142v-266
q0 -35 4 -46.5t23 -11.5q11 0 26 5zM384 180v87q-20 -15 -67 -23t-87 -12t-72 -26.5t-32 -66.5q0 -39 28.5 -57.5t71.5 -18.5q77 0 117.5 37t40.5 80zM160 675q0 46 33.5 79t79.5 33t79.5 -33t33.5 -79t-33.5 -79t-79.5 -33t-79.5 33t-33.5 79zM206 674q0 -29 19 -48.5
t48 -19.5t48 19.5t19 48.5t-19 48.5t-48 19.5t-48 -19.5t-19 -48.5z" />
    <glyph glyph-name="ae" unicode="&#xe6;" horiz-adv-x="870" 
d="M846 233h-379q0 -73 40 -121.5t115 -48.5q50 0 84.5 25.5t46.5 74.5h87q-19 -84 -77.5 -129.5t-146.5 -45.5q-141 0 -187 101q-55 -101 -218 -101q-79 0 -127 35.5t-48 109.5q0 42 14 71.5t41.5 46.5t54 25.5t65.5 15.5q20 4 48.5 9t41.5 7t31 6.5t25.5 9t16 11.5
t11 16.5t2.5 22.5q0 47 -32.5 63.5t-84.5 16.5q-124 0 -129 -98h-85q4 90 64 131.5t155 41.5q136 0 173 -75q50 75 165 75q233 0 233 -296zM126 139q0 -39 28.5 -57.5t71.5 -18.5q77 0 119 37.5t42 79.5v87q-16 -10 -41 -16t-62.5 -11t-53.5 -8q-50 -10 -77 -29.5t-27 -63.5
zM467 308h289q-2 64 -39.5 105t-103.5 41q-67 0 -106.5 -41t-39.5 -105z" />
    <glyph glyph-name="ccedilla" unicode="&#xe7;" horiz-adv-x="537" 
d="M503 351h-88q-21 103 -128 103q-85 0 -123 -57t-38 -145q0 -80 37.5 -134.5t113.5 -54.5q124 0 142 126h87q-14 -92 -68.5 -144t-144.5 -56l-33 -42l2 -2q10 7 33 7q35 0 59.5 -19t24.5 -54q0 -46 -37.5 -67.5t-86.5 -21.5q-38 0 -92 19l18 44q30 -13 61 -13q24 0 43 7.5
t19 23.5q0 14 -13 22.5t-34 8.5q-17 0 -41 -8l-17 28l53 68q-103 8 -159.5 79t-56.5 183q0 122 63 199.5t181 77.5q93 0 153.5 -44.5t69.5 -133.5z" />
    <glyph glyph-name="egrave" unicode="&#xe8;" horiz-adv-x="537" 
d="M126 308h297q-4 62 -45.5 104t-103.5 42q-64 0 -104 -42t-44 -104zM421 164h84q-17 -85 -74.5 -130.5t-146.5 -45.5q-119 0 -181.5 74t-66.5 198q0 117 68.5 193t174.5 76q53 0 95 -19t68 -49t43 -70t23.5 -79.5t4.5 -78.5h-387q-2 -72 39 -121t122 -49q112 0 134 101z
M280 589l-131 143h109l86 -143h-64z" />
    <glyph glyph-name="eacute" unicode="&#xe9;" horiz-adv-x="537" 
d="M126 308h297q-4 62 -45.5 104t-103.5 42q-64 0 -104 -42t-44 -104zM421 164h84q-17 -85 -74.5 -130.5t-146.5 -45.5q-119 0 -181.5 74t-66.5 198q0 117 68.5 193t174.5 76q53 0 95 -19t68 -49t43 -70t23.5 -79.5t4.5 -78.5h-387q-2 -72 39 -121t122 -49q112 0 134 101z
M240 589l86 143h109l-131 -143h-64z" />
    <glyph glyph-name="ecircumflex" unicode="&#xea;" horiz-adv-x="537" 
d="M126 308h297q-4 62 -45.5 104t-103.5 42q-64 0 -104 -42t-44 -104zM421 164h84q-17 -85 -74.5 -130.5t-146.5 -45.5q-119 0 -181.5 74t-66.5 198q0 117 68.5 193t174.5 76q53 0 95 -19t68 -49t43 -70t23.5 -79.5t4.5 -78.5h-387q-2 -72 39 -121t122 -49q112 0 134 101z
M131 589l103 143h93l104 -143h-84l-69 96l-70 -96h-77z" />
    <glyph glyph-name="edieresis" unicode="&#xeb;" horiz-adv-x="537" 
d="M126 308h297q-4 62 -45.5 104t-103.5 42q-64 0 -104 -42t-44 -104zM421 164h84q-17 -85 -74.5 -130.5t-146.5 -45.5q-119 0 -181.5 74t-66.5 198q0 117 68.5 193t174.5 76q53 0 95 -19t68 -49t43 -70t23.5 -79.5t4.5 -78.5h-387q-2 -72 39 -121t122 -49q112 0 134 101z
M139 602v104h90v-104h-90zM327 602v104h90v-104h-90z" />
    <glyph glyph-name="igrave" unicode="&#xec;" horiz-adv-x="222" 
d="M154 0h-85v517h85v-517zM91 589l-131 143h109l86 -143h-64z" />
    <glyph glyph-name="iacute" unicode="&#xed;" horiz-adv-x="222" 
d="M154 0h-85v517h85v-517zM67 589l86 143h109l-131 -143h-64z" />
    <glyph glyph-name="icircumflex" unicode="&#xee;" horiz-adv-x="222" 
d="M154 0h-85v517h85v-517zM-37 589l103 143h93l104 -143h-84l-69 96l-70 -96h-77z" />
    <glyph glyph-name="idieresis" unicode="&#xef;" horiz-adv-x="222" 
d="M-27 602v104h90v-104h-90zM161 602v104h90v-104h-90zM154 0h-85v517h85v-517z" />
    <glyph glyph-name="eth" unicode="&#xf0;" horiz-adv-x="574" 
d="M282 431q-75 0 -115.5 -47t-40.5 -126q0 -91 46 -143t115 -52t115 52t46 143q0 75 -41.5 124t-124.5 49zM272 506q90 0 139 -56h2q-22 47 -58.5 90t-63.5 61l-115 -54l-38 40l109 51q-23 21 -70 48l70 45q42 -28 77 -56l120 56l35 -37l-115 -53q174 -144 174 -383
q0 -118 -66 -194t-185 -76t-185 76t-66 194q0 103 63.5 175.5t172.5 72.5z" />
    <glyph glyph-name="ntilde" unicode="&#xf1;" 
d="M64 0v517h80v-82h2q53 94 168 94q96 0 137 -49.5t41 -139.5v-340h-85v350q0 48 -28 76t-77 28q-75 0 -114 -44.5t-39 -117.5v-292h-85zM398 717h52q-6 -44 -32 -79q-26 -32 -69 -32q-31 0 -75 20q-51 19 -66 19q-19 0 -31 -12q-9 -8 -18 -30h-52q23 110 106 110
q28 0 73.5 -20t65.5 -20q33 0 46 44z" />
    <glyph glyph-name="ograve" unicode="&#xf2;" horiz-adv-x="574" 
d="M126 258q0 -91 46 -143t115 -52t115 52t46 143t-46 143.5t-115 52.5t-115 -52.5t-46 -143.5zM36 258q0 119 66 195t185 76t185 -76t66 -195q0 -118 -66 -194t-185 -76t-185 76t-66 194zM259 589l-131 143h109l86 -143h-64z" />
    <glyph glyph-name="oacute" unicode="&#xf3;" horiz-adv-x="574" 
d="M126 258q0 -91 46 -143t115 -52t115 52t46 143t-46 143.5t-115 52.5t-115 -52.5t-46 -143.5zM36 258q0 119 66 195t185 76t185 -76t66 -195q0 -118 -66 -194t-185 -76t-185 76t-66 194zM238 589l86 143h109l-131 -143h-64z" />
    <glyph glyph-name="ocircumflex" unicode="&#xf4;" horiz-adv-x="574" 
d="M126 258q0 -91 46 -143t115 -52t115 52t46 143t-46 143.5t-115 52.5t-115 -52.5t-46 -143.5zM36 258q0 119 66 195t185 76t185 -76t66 -195q0 -118 -66 -194t-185 -76t-185 76t-66 194zM139 589l103 143h93l104 -143h-84l-69 96l-70 -96h-77z" />
    <glyph glyph-name="otilde" unicode="&#xf5;" horiz-adv-x="574" 
d="M126 258q0 -91 46 -143t115 -52t115 52t46 143t-46 143.5t-115 52.5t-115 -52.5t-46 -143.5zM36 258q0 119 66 195t185 76t185 -76t66 -195q0 -118 -66 -194t-185 -76t-185 76t-66 194zM408 717h52q-6 -44 -32 -79q-26 -32 -69 -32q-31 0 -75 20q-51 19 -66 19
q-19 0 -31 -12q-9 -8 -18 -30h-52q23 110 106 110q28 0 73.5 -20t65.5 -20q33 0 46 44z" />
    <glyph glyph-name="odieresis" unicode="&#xf6;" horiz-adv-x="574" 
d="M126 258q0 -91 46 -143t115 -52t115 52t46 143t-46 143.5t-115 52.5t-115 -52.5t-46 -143.5zM36 258q0 119 66 195t185 76t185 -76t66 -195q0 -118 -66 -194t-185 -76t-185 76t-66 194zM148 602v104h90v-104h-90zM336 602v104h90v-104h-90z" />
    <glyph glyph-name="divide" unicode="&#xf7;" horiz-adv-x="600" 
d="M236 47q0 26 19 45t45 19t45 -19t19 -45q0 -24 -19 -44t-44 -20q-26 0 -45.5 19t-19.5 45zM236 459q0 26 19 45t45 19t45 -19t19 -45q0 -24 -19 -44t-44 -20q-26 0 -45.5 19t-19.5 45zM48 219v68h504v-68h-504z" />
    <glyph glyph-name="oslash" unicode="&#xf8;" horiz-adv-x="574" 
d="M540 509l-60 -66q58 -70 58 -185q0 -118 -66 -194t-185 -76q-100 0 -165 57l-60 -67l-28 24l62 69q-60 73 -60 187q0 119 66 195t185 76q103 0 168 -59l58 65zM420 377l-242 -269q45 -45 109 -45q69 0 115 52t46 143q0 68 -28 119zM156 137l242 270q-44 47 -111 47
q-69 0 -115 -52.5t-46 -143.5q0 -69 30 -121z" />
    <glyph glyph-name="ugrave" unicode="&#xf9;" 
d="M492 517v-517h-80v82h-2q-53 -94 -168 -94q-96 0 -137 49.5t-41 139.5v340h85v-350q0 -48 28 -76t77 -28q75 0 114 44.5t39 117.5v292h85zM256 589l-131 143h109l86 -143h-64z" />
    <glyph glyph-name="uacute" unicode="&#xfa;" 
d="M492 517v-517h-80v82h-2q-53 -94 -168 -94q-96 0 -137 49.5t-41 139.5v340h85v-350q0 -48 28 -76t77 -28q75 0 114 44.5t39 117.5v292h85zM229 589l86 143h109l-131 -143h-64z" />
    <glyph glyph-name="ucircumflex" unicode="&#xfb;" 
d="M492 517v-517h-80v82h-2q-53 -94 -168 -94q-96 0 -137 49.5t-41 139.5v340h85v-350q0 -48 28 -76t77 -28q75 0 114 44.5t39 117.5v292h85zM128 589l103 143h93l104 -143h-84l-69 96l-70 -96h-77z" />
    <glyph glyph-name="udieresis" unicode="&#xfc;" 
d="M492 517v-517h-80v82h-2q-53 -94 -168 -94q-96 0 -137 49.5t-41 139.5v340h85v-350q0 -48 28 -76t77 -28q75 0 114 44.5t39 117.5v292h85zM138 602v104h90v-104h-90zM326 602v104h90v-104h-90z" />
    <glyph glyph-name="yacute" unicode="&#xfd;" horiz-adv-x="500" 
d="M492 517l-225 -586q-31 -77 -62.5 -107.5t-87.5 -30.5q-35 0 -59 9v78q38 -12 50 -12q46 0 70 47l35 88l-205 514h96l151 -423h2l145 423h90zM221 589l86 143h109l-131 -143h-64z" />
    <glyph glyph-name="thorn" unicode="&#xfe;" horiz-adv-x="593" 
d="M152 714v-267h2q40 82 165 82q114 0 176 -78t62 -194t-61 -192.5t-175 -76.5q-46 0 -94 19.5t-73 61.5h-2v-267h-85v912h85zM467 263q0 79 -41 135t-119 56q-80 0 -119 -57t-39 -138q0 -83 40.5 -139.5t122.5 -56.5q81 0 118 57.5t37 142.5z" />
    <glyph glyph-name="ydieresis" unicode="&#xff;" horiz-adv-x="500" 
d="M492 517l-225 -586q-31 -77 -62.5 -107.5t-87.5 -30.5q-35 0 -59 9v78q38 -12 50 -12q46 0 70 47l35 88l-205 514h96l151 -423h2l145 423h90zM118 602v104h90v-104h-90zM306 602v104h90v-104h-90z" />
    <glyph glyph-name="Amacron" unicode="&#x100;" horiz-adv-x="648" 
d="M322 628l-121 -333h242l-119 333h-2zM-7 0l279 714h105l279 -714h-105l-78 215h-302l-80 -215h-98zM153 817v55h341v-55h-341z" />
    <glyph glyph-name="amacron" unicode="&#x101;" horiz-adv-x="537" 
d="M522 68v-66q-23 -14 -61 -14q-72 0 -72 80q-67 -80 -182 -80q-76 0 -123.5 35.5t-47.5 109.5q0 42 14 71.5t41.5 46.5t54 25.5t65.5 15.5q19 4 45 8t42 6t34.5 6.5t28.5 11t17 17.5t7 27q0 86 -115 86q-124 0 -129 -98h-85q4 90 64 131.5t155 41.5q194 0 194 -142v-266
q0 -35 4 -46.5t23 -11.5q11 0 26 5zM384 180v87q-20 -15 -67 -23t-87 -12t-72 -26.5t-32 -66.5q0 -39 28.5 -57.5t71.5 -18.5q77 0 117.5 37t40.5 80zM108 627v55h341v-55h-341z" />
    <glyph glyph-name="Abreve" unicode="&#x102;" horiz-adv-x="648" 
d="M322 628l-121 -333h242l-119 333h-2zM-7 0l279 714h105l279 -714h-105l-78 215h-302l-80 -215h-98zM167 919h50q24 -83 112 -83q40 0 61 20t38 63h51q-11 -65 -52 -101.5t-106 -36.5q-134 0 -154 138z" />
    <glyph glyph-name="abreve" unicode="&#x103;" horiz-adv-x="537" 
d="M522 68v-66q-23 -14 -61 -14q-72 0 -72 80q-67 -80 -182 -80q-76 0 -123.5 35.5t-47.5 109.5q0 42 14 71.5t41.5 46.5t54 25.5t65.5 15.5q19 4 45 8t42 6t34.5 6.5t28.5 11t17 17.5t7 27q0 86 -115 86q-124 0 -129 -98h-85q4 90 64 131.5t155 41.5q194 0 194 -142v-266
q0 -35 4 -46.5t23 -11.5q11 0 26 5zM384 180v87q-20 -15 -67 -23t-87 -12t-72 -26.5t-32 -66.5q0 -39 28.5 -57.5t71.5 -18.5q77 0 117.5 37t40.5 80zM120 729h50q24 -83 112 -83q40 0 61 20t38 63h51q-11 -65 -52 -101.5t-106 -36.5q-134 0 -154 138z" />
    <glyph glyph-name="Aogonek" unicode="&#x104;" horiz-adv-x="648" 
d="M656 0h-65q-84 -70 -84 -118q0 -17 9.5 -29.5t28.5 -12.5q38 0 62 30l32 -18q-36 -62 -108 -62q-92 0 -92 82q0 8 4 19.5t14.5 29.5t35 39t58.5 40l-78 215h-302l-80 -215h-98l279 714h105zM322 628l-121 -333h242l-119 333h-2z" />
    <glyph glyph-name="aogonek" unicode="&#x105;" horiz-adv-x="537" 
d="M522 68v-66q-23 -14 -61 -14q-6 0 -9 1q-21 -19 -28 -27q-42 -42 -42 -80q0 -17 9.5 -29.5t28.5 -12.5q38 0 62 30l32 -18q-36 -62 -108 -62q-92 0 -92 82q0 37 53 88q18 17 54 38q-7 3 -13 9q-19 19 -19 61q-67 -80 -182 -80q-76 0 -123.5 35.5t-47.5 109.5
q0 42 14 71.5t41.5 46.5t54 25.5t65.5 15.5q19 4 45 8t42 6t34.5 6.5t28.5 11t17 17.5t7 27q0 86 -115 86q-124 0 -129 -98h-85q4 90 64 131.5t155 41.5q194 0 194 -142v-266q0 -35 4 -46.5t23 -11.5q11 0 26 5zM384 180v87q-20 -15 -67 -23t-87 -12t-72 -26.5t-32 -66.5
q0 -39 28.5 -57.5t71.5 -18.5q77 0 117.5 37t40.5 80z" />
    <glyph glyph-name="Cacute" unicode="&#x106;" horiz-adv-x="722" 
d="M675 499h-95q-15 74 -69 113t-131 39q-120 0 -181 -83.5t-61 -205.5q0 -131 60.5 -215t182.5 -84q91 0 145.5 57.5t60.5 148.5h95q-14 -136 -94 -211t-215 -75q-159 0 -244.5 104t-85.5 268q0 163 89.5 269.5t248.5 106.5q116 0 197.5 -60.5t96.5 -171.5zM346 779l86 143
h109l-131 -143h-64z" />
    <glyph glyph-name="cacute" unicode="&#x107;" horiz-adv-x="537" 
d="M503 351h-88q-21 103 -128 103q-85 0 -123 -57t-38 -145q0 -80 37.5 -134.5t113.5 -54.5q124 0 142 126h87q-14 -96 -72.5 -148.5t-155.5 -52.5q-116 0 -179 72.5t-63 191.5q0 122 63 199.5t181 77.5q93 0 153.5 -44.5t69.5 -133.5zM243 589l86 143h109l-131 -143h-64z
" />
    <glyph glyph-name="Ccircumflex" unicode="&#x108;" horiz-adv-x="722" 
d="M675 499h-95q-15 74 -69 113t-131 39q-120 0 -181 -83.5t-61 -205.5q0 -131 60.5 -215t182.5 -84q91 0 145.5 57.5t60.5 148.5h95q-14 -136 -94 -211t-215 -75q-159 0 -244.5 104t-85.5 268q0 163 89.5 269.5t248.5 106.5q116 0 197.5 -60.5t96.5 -171.5zM236 779
l103 143h93l104 -143h-84l-69 96l-70 -96h-77z" />
    <glyph glyph-name="ccircumflex" unicode="&#x109;" horiz-adv-x="537" 
d="M503 351h-88q-21 103 -128 103q-85 0 -123 -57t-38 -145q0 -80 37.5 -134.5t113.5 -54.5q124 0 142 126h87q-14 -96 -72.5 -148.5t-155.5 -52.5q-116 0 -179 72.5t-63 191.5q0 122 63 199.5t181 77.5q93 0 153.5 -44.5t69.5 -133.5zM136 589l103 143h93l104 -143h-84
l-69 96l-70 -96h-77z" />
    <glyph glyph-name="Cdotaccent" unicode="&#x10a;" horiz-adv-x="722" 
d="M675 499h-95q-15 74 -69 113t-131 39q-120 0 -181 -83.5t-61 -205.5q0 -131 60.5 -215t182.5 -84q91 0 145.5 57.5t60.5 148.5h95q-14 -136 -94 -211t-215 -75q-159 0 -244.5 104t-85.5 268q0 163 89.5 269.5t248.5 106.5q116 0 197.5 -60.5t96.5 -171.5zM422 898v-104
h-90v104h90z" />
    <glyph glyph-name="cdotaccent" unicode="&#x10b;" horiz-adv-x="537" 
d="M503 351h-88q-21 103 -128 103q-85 0 -123 -57t-38 -145q0 -80 37.5 -134.5t113.5 -54.5q124 0 142 126h87q-14 -96 -72.5 -148.5t-155.5 -52.5q-116 0 -179 72.5t-63 191.5q0 122 63 199.5t181 77.5q93 0 153.5 -44.5t69.5 -133.5zM326 708v-104h-90v104h90z" />
    <glyph glyph-name="Ccaron" unicode="&#x10c;" horiz-adv-x="722" 
d="M675 499h-95q-15 74 -69 113t-131 39q-120 0 -181 -83.5t-61 -205.5q0 -131 60.5 -215t182.5 -84q91 0 145.5 57.5t60.5 148.5h95q-14 -136 -94 -211t-215 -75q-159 0 -244.5 104t-85.5 268q0 163 89.5 269.5t248.5 106.5q116 0 197.5 -60.5t96.5 -171.5zM527 922
l-103 -143h-93l-104 143h84l69 -96l70 96h77z" />
    <glyph glyph-name="ccaron" unicode="&#x10d;" horiz-adv-x="537" 
d="M503 351h-88q-21 103 -128 103q-85 0 -123 -57t-38 -145q0 -80 37.5 -134.5t113.5 -54.5q124 0 142 126h87q-14 -96 -72.5 -148.5t-155.5 -52.5q-116 0 -179 72.5t-63 191.5q0 122 63 199.5t181 77.5q93 0 153.5 -44.5t69.5 -133.5zM426 732l-103 -143h-93l-104 143h84
l69 -96l70 96h77z" />
    <glyph glyph-name="Dcaron" unicode="&#x10e;" horiz-adv-x="704" 
d="M173 634v-554h158q26 0 50.5 3.5t61.5 20t63 44.5t45.5 83t19.5 130q0 134 -56 203.5t-182 69.5h-160zM78 0v714h245q167 0 255 -85t88 -255q0 -374 -343 -374h-245zM467 922l-103 -143h-93l-104 143h84l69 -96l70 96h77z" />
    <glyph glyph-name="dcaron" unicode="&#x10f;" horiz-adv-x="653" 
d="M126 254q0 -79 41 -135t119 -56q80 0 119 57t39 138q0 83 -40.5 139.5t-122.5 56.5q-81 0 -118 -57.5t-37 -142.5zM526 714v-714h-85v70h-2q-40 -82 -165 -82q-114 0 -176 78t-62 194t61.5 192.5t174.5 76.5q46 0 94 -19.5t73 -61.5h2v266h85zM576 571l26 143h109
l-75 -143h-60z" />
    <glyph glyph-name="Dcroat" unicode="&#x110;" horiz-adv-x="704" 
d="M173 634v-227h214v-68h-214v-259h158q26 0 50.5 3.5t61.5 20t63 44.5t45.5 83t19.5 130q0 134 -56 203.5t-182 69.5h-160zM78 0v339h-70v68h70v307h245q167 0 255 -85t88 -255q0 -374 -343 -374h-245z" />
    <glyph glyph-name="dcroat" unicode="&#x111;" horiz-adv-x="603" 
d="M271 583v55h170v76h85v-76h86v-55h-86v-583h-85v70h-2q-40 -82 -165 -82q-114 0 -176 78t-62 194t61.5 192.5t174.5 76.5q46 0 94 -19.5t73 -61.5h2v135h-170zM126 254q0 -79 41 -135t119 -56q80 0 119 57t39 138q0 83 -40.5 139.5t-122.5 56.5q-81 0 -118 -57.5
t-37 -142.5z" />
    <glyph glyph-name="Emacron" unicode="&#x112;" horiz-adv-x="611" 
d="M78 0v714h493v-80h-398v-227h371v-80h-371v-247h401v-80h-496zM158 817v55h341v-55h-341z" />
    <glyph glyph-name="emacron" unicode="&#x113;" horiz-adv-x="537" 
d="M126 308h297q-4 62 -45.5 104t-103.5 42q-64 0 -104 -42t-44 -104zM421 164h84q-17 -85 -74.5 -130.5t-146.5 -45.5q-119 0 -181.5 74t-66.5 198q0 117 68.5 193t174.5 76q53 0 95 -19t68 -49t43 -70t23.5 -79.5t4.5 -78.5h-387q-2 -72 39 -121t122 -49q112 0 134 101z
M112 627v55h341v-55h-341z" />
    <glyph glyph-name="Ebreve" unicode="&#x114;" horiz-adv-x="611" 
d="M78 0v714h493v-80h-398v-227h371v-80h-371v-247h401v-80h-496zM163 919h50q24 -83 112 -83q40 0 61 20t38 63h51q-11 -65 -52 -101.5t-106 -36.5q-134 0 -154 138z" />
    <glyph glyph-name="ebreve" unicode="&#x115;" horiz-adv-x="537" 
d="M126 308h297q-4 62 -45.5 104t-103.5 42q-64 0 -104 -42t-44 -104zM421 164h84q-17 -85 -74.5 -130.5t-146.5 -45.5q-119 0 -181.5 74t-66.5 198q0 117 68.5 193t174.5 76q53 0 95 -19t68 -49t43 -70t23.5 -79.5t4.5 -78.5h-387q-2 -72 39 -121t122 -49q112 0 134 101z
M124 729h50q24 -83 112 -83q40 0 61 20t38 63h51q-11 -65 -52 -101.5t-106 -36.5q-134 0 -154 138z" />
    <glyph glyph-name="Edotaccent" unicode="&#x116;" horiz-adv-x="611" 
d="M78 0v714h493v-80h-398v-227h371v-80h-371v-247h401v-80h-496zM370 898v-104h-90v104h90z" />
    <glyph glyph-name="edotaccent" unicode="&#x117;" horiz-adv-x="537" 
d="M126 308h297q-4 62 -45.5 104t-103.5 42q-64 0 -104 -42t-44 -104zM421 164h84q-17 -85 -74.5 -130.5t-146.5 -45.5q-119 0 -181.5 74t-66.5 198q0 117 68.5 193t174.5 76q53 0 95 -19t68 -49t43 -70t23.5 -79.5t4.5 -78.5h-387q-2 -72 39 -121t122 -49q112 0 134 101z
M325 708v-104h-90v104h90z" />
    <glyph glyph-name="Eogonek" unicode="&#x118;" horiz-adv-x="611" 
d="M574 0h-48q-84 -70 -84 -118q0 -17 9.5 -29.5t28.5 -12.5q38 0 62 30l32 -18q-36 -62 -108 -62q-92 0 -92 82q0 8 4 19.5t14.5 29.5t35 39t58.5 40h-408v714h493v-80h-398v-227h371v-80h-371v-247h401v-80z" />
    <glyph glyph-name="eogonek" unicode="&#x119;" horiz-adv-x="537" 
d="M421 164h84q-17 -86 -75 -131q-47 -37 -117 -43q-6 -6 -15.5 -15t-13.5 -13q-42 -42 -42 -80q0 -17 9.5 -29.5t28.5 -12.5q38 0 62 30l32 -18q-36 -62 -108 -62q-92 0 -92 82q0 37 53 88q20 16 39 29q-48 1 -90 19q-134 63 -140 252q0 117 68.5 193t174.5 76q53 0 95 -19
t68 -49t43 -70t23.5 -79.5t4.5 -78.5h-387q-2 -72 39 -121t122 -49q112 0 134 101zM126 308h297q-4 62 -45.5 104t-103.5 42q-64 0 -104 -42t-44 -104z" />
    <glyph glyph-name="Ecaron" unicode="&#x11a;" horiz-adv-x="611" 
d="M78 0v714h493v-80h-398v-227h371v-80h-371v-247h401v-80h-496zM473 922l-103 -143h-93l-104 143h84l69 -96l70 96h77z" />
    <glyph glyph-name="ecaron" unicode="&#x11b;" horiz-adv-x="537" 
d="M126 308h297q-4 62 -45.5 104t-103.5 42q-64 0 -104 -42t-44 -104zM421 164h84q-17 -85 -74.5 -130.5t-146.5 -45.5q-119 0 -181.5 74t-66.5 198q0 117 68.5 193t174.5 76q53 0 95 -19t68 -49t43 -70t23.5 -79.5t4.5 -78.5h-387q-2 -72 39 -121t122 -49q112 0 134 101z
M426 732l-103 -143h-93l-104 143h84l69 -96l70 96h77z" />
    <glyph glyph-name="Gcircumflex" unicode="&#x11c;" horiz-adv-x="759" 
d="M637 0l-25 89q-40 -53 -101.5 -79.5t-127.5 -26.5q-103 0 -182 51.5t-118.5 132.5t-39.5 176q0 165 89 276.5t251 111.5q123 0 205.5 -58.5t101.5 -178.5h-95q-14 78 -71 117.5t-141 39.5q-121 0 -183 -88.5t-62 -214.5q0 -118 65.5 -201.5t179.5 -83.5q109 0 171 66
t58 167h-228v80h313v-376h-60zM243 779l103 143h93l104 -143h-84l-69 96l-70 -96h-77z" />
    <glyph glyph-name="gcircumflex" unicode="&#x11d;" horiz-adv-x="574" 
d="M510 517v-473q0 -128 -59 -191t-181 -63q-53 0 -98 14t-79.5 49.5t-36.5 88.5h85q2 -42 43.5 -63t90.5 -21q155 0 155 196v34h-2q-21 -45 -65 -69.5t-96 -24.5q-110 0 -170.5 75t-60.5 187q0 49 12.5 94.5t39 87t75 66.5t112.5 25q107 0 154 -86h1v74h80zM272 69
q78 0 116 59t38 141q0 77 -36.5 131t-110.5 54q-77 0 -115 -53.5t-38 -134.5q0 -51 12.5 -93t46.5 -73t87 -31zM147 589l103 143h93l104 -143h-84l-69 96l-70 -96h-77z" />
    <glyph glyph-name="Gbreve" unicode="&#x11e;" horiz-adv-x="759" 
d="M637 0l-25 89q-40 -53 -101.5 -79.5t-127.5 -26.5q-103 0 -182 51.5t-118.5 132.5t-39.5 176q0 165 89 276.5t251 111.5q123 0 205.5 -58.5t101.5 -178.5h-95q-14 78 -71 117.5t-141 39.5q-121 0 -183 -88.5t-62 -214.5q0 -118 65.5 -201.5t179.5 -83.5q109 0 171 66
t58 167h-228v80h313v-376h-60zM225 919h50q24 -83 112 -83q40 0 61 20t38 63h51q-11 -65 -52 -101.5t-106 -36.5q-134 0 -154 138z" />
    <glyph glyph-name="gbreve" unicode="&#x11f;" horiz-adv-x="574" 
d="M510 517v-473q0 -128 -59 -191t-181 -63q-53 0 -98 14t-79.5 49.5t-36.5 88.5h85q2 -42 43.5 -63t90.5 -21q155 0 155 196v34h-2q-21 -45 -65 -69.5t-96 -24.5q-110 0 -170.5 75t-60.5 187q0 49 12.5 94.5t39 87t75 66.5t112.5 25q107 0 154 -86h1v74h80zM272 69
q78 0 116 59t38 141q0 77 -36.5 131t-110.5 54q-77 0 -115 -53.5t-38 -134.5q0 -51 12.5 -93t46.5 -73t87 -31zM130 729h50q24 -83 112 -83q40 0 61 20t38 63h51q-11 -65 -52 -101.5t-106 -36.5q-134 0 -154 138z" />
    <glyph glyph-name="Gdotaccent" unicode="&#x120;" horiz-adv-x="759" 
d="M637 0l-25 89q-40 -53 -101.5 -79.5t-127.5 -26.5q-103 0 -182 51.5t-118.5 132.5t-39.5 176q0 165 89 276.5t251 111.5q123 0 205.5 -58.5t101.5 -178.5h-95q-14 78 -71 117.5t-141 39.5q-121 0 -183 -88.5t-62 -214.5q0 -118 65.5 -201.5t179.5 -83.5q109 0 171 66
t58 167h-228v80h313v-376h-60zM429 898v-104h-90v104h90z" />
    <glyph glyph-name="gdotaccent" unicode="&#x121;" horiz-adv-x="574" 
d="M510 517v-473q0 -128 -59 -191t-181 -63q-53 0 -98 14t-79.5 49.5t-36.5 88.5h85q2 -42 43.5 -63t90.5 -21q155 0 155 196v34h-2q-21 -45 -65 -69.5t-96 -24.5q-110 0 -170.5 75t-60.5 187q0 49 12.5 94.5t39 87t75 66.5t112.5 25q107 0 154 -86h1v74h80zM272 69
q78 0 116 59t38 141q0 77 -36.5 131t-110.5 54q-77 0 -115 -53.5t-38 -134.5q0 -51 12.5 -93t46.5 -73t87 -31zM332 708v-104h-90v104h90z" />
    <glyph glyph-name="Gcommaaccent" unicode="&#x122;" horiz-adv-x="759" 
d="M637 0l-25 89q-40 -53 -101.5 -79.5t-127.5 -26.5q-103 0 -182 51.5t-118.5 132.5t-39.5 176q0 165 89 276.5t251 111.5q123 0 205.5 -58.5t101.5 -178.5h-95q-14 78 -71 117.5t-141 39.5q-121 0 -183 -88.5t-62 -214.5q0 -118 65.5 -201.5t179.5 -83.5q109 0 171 66
t58 167h-228v80h313v-376h-60zM321 -138v88h111v-77q0 -41 -26.5 -62t-72.5 -21v35q19 5 28.5 12.5t10.5 11.5t1 13h-52z" />
    <glyph glyph-name="gcommaaccent" unicode="&#x123;" horiz-adv-x="574" 
d="M510 517v-473q0 -128 -59 -191t-181 -63q-53 0 -98 14t-79.5 49.5t-36.5 88.5h85q2 -42 43.5 -63t90.5 -21q155 0 155 196v34h-2q-21 -45 -65 -69.5t-96 -24.5q-110 0 -170.5 75t-60.5 187q0 49 12.5 94.5t39 87t75 66.5t112.5 25q107 0 154 -86h1v74h80zM272 69
q78 0 116 59t38 141q0 77 -36.5 131t-110.5 54q-77 0 -115 -53.5t-38 -134.5q0 -51 12.5 -93t46.5 -73t87 -31zM341 714v-88h-111v77q0 41 26.5 62t72.5 21v-35q-19 -5 -28.5 -12.5t-10.5 -11.5t-1 -13h52z" />
    <glyph glyph-name="Hcircumflex" unicode="&#x124;" horiz-adv-x="722" 
d="M78 0v714h95v-307h376v307h95v-714h-95v327h-376v-327h-95zM209 779l103 143h93l104 -143h-84l-69 96l-70 -96h-77z" />
    <glyph glyph-name="hcircumflex" unicode="&#x125;" 
d="M64 0v714h85v-273h2q19 44 65.5 66t97.5 22q96 0 137 -49.5t41 -139.5v-340h-85v350q0 48 -28 76t-77 28q-75 0 -114 -44.5t-39 -117.5v-292h-85zM128 779l103 143h93l104 -143h-84l-69 96l-70 -96h-77z" />
    <glyph glyph-name="Hbar" unicode="&#x126;" horiz-adv-x="722" 
d="M78 0v714h95v-197h376v197h95v-714h-95v317h-376v-317h-95zM173 397h376v65h-376v-65z" />
    <glyph glyph-name="hbar" unicode="&#x127;" horiz-adv-x="566" 
d="M-10 583v55h84v76h85v-76h142v-55h-142v-142h2q19 44 65.5 66t97.5 22q96 0 137 -49.5t41 -139.5v-340h-85v350q0 48 -28 76t-77 28q-75 0 -114 -44.5t-39 -117.5v-292h-85v583h-84z" />
    <glyph glyph-name="Itilde" unicode="&#x128;" horiz-adv-x="259" 
d="M82 0v714h95v-714h-95zM250 907h52q-6 -44 -32 -79q-26 -32 -69 -32q-31 0 -75 20q-51 19 -66 19q-19 0 -31 -12q-9 -8 -18 -30h-52q23 110 106 110q28 0 73.5 -20t65.5 -20q33 0 46 44z" />
    <glyph glyph-name="itilde" unicode="&#x129;" horiz-adv-x="222" 
d="M154 0h-85v517h85v-517zM232 717h52q-6 -44 -32 -79q-26 -32 -69 -32q-31 0 -75 20q-51 19 -66 19q-19 0 -31 -12q-9 -8 -18 -30h-52q23 110 106 110q28 0 73.5 -20t65.5 -20q33 0 46 44z" />
    <glyph glyph-name="Imacron" unicode="&#x12a;" horiz-adv-x="259" 
d="M82 0v714h95v-714h-95zM-40 817v55h341v-55h-341z" />
    <glyph glyph-name="imacron" unicode="&#x12b;" horiz-adv-x="222" 
d="M154 0h-85v517h85v-517zM-58 627v55h341v-55h-341z" />
    <glyph glyph-name="Iogonek" unicode="&#x12e;" horiz-adv-x="259" 
d="M82 0v714h95v-714q-43 -42 -59 -68t-16 -50q0 -19 9 -30.5t25 -11.5q32 0 56 30l28 -18q-34 -62 -91 -62q-89 0 -89 82q0 13 6 29.5t30.5 45t64.5 53.5h-59z" />
    <glyph glyph-name="iogonek" unicode="&#x12f;" horiz-adv-x="222" 
d="M154 517v-517q-43 -42 -59 -68t-16 -50q0 -17 8.5 -29.5t25.5 -12.5q35 0 56 30l28 -18q-32 -62 -97 -62q-83 0 -83 82q0 12 6 28.5t30.5 45.5t64.5 54h-49v517h85zM154 714v-104h-85v104h85z" />
    <glyph glyph-name="Idotaccent" unicode="&#x130;" horiz-adv-x="259" 
d="M82 0v714h95v-714h-95zM175 898v-104h-90v104h90z" />
    <glyph glyph-name="dotlessi" unicode="&#x131;" horiz-adv-x="222" 
d="M154 0h-85v517h85v-517z" />
    <glyph glyph-name="Jcircumflex" unicode="&#x134;" horiz-adv-x="519" 
d="M441 714v-536q0 -82 -50 -138.5t-161 -56.5q-100 0 -154 53.5t-54 154.5v44h95v-30q0 -69 25 -105.5t90 -36.5q62 0 88 33t26 96v522h95zM241 779l103 143h93l104 -143h-84l-69 96l-70 -96h-77z" />
    <glyph glyph-name="jcircumflex" unicode="&#x135;" horiz-adv-x="222" 
d="M154 517v-583q0 -132 -124 -132q-24 0 -44 4v73q12 -2 17 -2h18q28 0 38 15.5t10 55.5v569h85zM-39 589l103 143h93l104 -143h-84l-69 96l-70 -96h-77z" />
    <glyph glyph-name="Kcommaaccent" unicode="&#x136;" horiz-adv-x="667" 
d="M78 0v714h95v-356l362 356h123l-301 -288l313 -426h-120l-258 361l-119 -111v-250h-95zM286 -138v88h111v-77q0 -41 -26.5 -62t-72.5 -21v35q19 5 28.5 12.5t10.5 11.5t1 13h-52z" />
    <glyph glyph-name="kcommaaccent" unicode="&#x137;" horiz-adv-x="519" 
d="M69 0v714h85v-423l236 226h114l-205 -188l220 -329h-108l-177 270l-80 -74v-196h-85zM217 -138v88h111v-77q0 -41 -26.5 -62t-72.5 -21v35q19 5 28.5 12.5t10.5 11.5t1 13h-52z" />
    <glyph glyph-name="Lacute" unicode="&#x139;" 
d="M78 0v714h95v-634h378v-80h-473zM93 779l86 143h109l-131 -143h-64z" />
    <glyph glyph-name="lacute" unicode="&#x13a;" horiz-adv-x="222" 
d="M69 0v714h85v-714h-85zM70 779l86 143h109l-131 -143h-64z" />
    <glyph glyph-name="Lcommaaccent" unicode="&#x13b;" 
d="M78 0v714h95v-634h378v-80h-473zM243 -138v88h111v-77q0 -41 -26.5 -62t-72.5 -21v35q19 5 28.5 12.5t10.5 11.5t1 13h-52z" />
    <glyph glyph-name="lcommaaccent" unicode="&#x13c;" horiz-adv-x="222" 
d="M69 0v714h85v-714h-85zM56 -138v88h111v-77q0 -41 -26.5 -62t-72.5 -21v35q19 5 28.5 12.5t10.5 11.5t1 13h-52z" />
    <glyph glyph-name="Lcaron" unicode="&#x13d;" 
d="M78 0v714h95v-634h378v-80h-473zM280 571l26 143h109l-75 -143h-60z" />
    <glyph glyph-name="lcaron" unicode="&#x13e;" horiz-adv-x="281" 
d="M69 0v714h85v-714h-85zM204 571l26 143h109l-75 -143h-60z" />
    <glyph glyph-name="Ldot" unicode="&#x13f;" 
d="M78 0v714h95v-634h378v-80h-473zM399 517v-104h-90v104h90z" />
    <glyph glyph-name="ldot" unicode="&#x140;" horiz-adv-x="348" 
d="M69 0v714h85v-714h-85zM310 517v-104h-90v104h90z" />
    <glyph glyph-name="Lslash" unicode="&#x141;" 
d="M78 0v240l-79 -56v76l79 56v398h95v-330l228 160v-76l-228 -160v-228h378v-80h-473z" />
    <glyph glyph-name="lslash" unicode="&#x142;" horiz-adv-x="222" 
d="M69 0v321l-70 -55v71l70 56v321h85v-254l70 56v-71l-70 -56v-389h-85z" />
    <glyph glyph-name="Nacute" unicode="&#x143;" horiz-adv-x="722" 
d="M77 0v714h101l376 -579h2v579h90v-714h-104l-373 573h-2v-573h-90zM322 779l86 143h109l-131 -143h-64z" />
    <glyph glyph-name="nacute" unicode="&#x144;" 
d="M64 0v517h80v-82h2q53 94 168 94q96 0 137 -49.5t41 -139.5v-340h-85v350q0 48 -28 76t-77 28q-75 0 -114 -44.5t-39 -117.5v-292h-85zM242 589l86 143h109l-131 -143h-64z" />
    <glyph glyph-name="Ncommaaccent" unicode="&#x145;" horiz-adv-x="722" 
d="M77 0v714h101l376 -579h2v579h90v-714h-104l-373 573h-2v-573h-90zM302 -138v88h111v-77q0 -41 -26.5 -62t-72.5 -21v35q19 5 28.5 12.5t10.5 11.5t1 13h-52z" />
    <glyph glyph-name="ncommaaccent" unicode="&#x146;" 
d="M64 0v517h80v-82h2q53 94 168 94q96 0 137 -49.5t41 -139.5v-340h-85v350q0 48 -28 76t-77 28q-75 0 -114 -44.5t-39 -117.5v-292h-85zM221 -138v88h111v-77q0 -41 -26.5 -62t-72.5 -21v35q19 5 28.5 12.5t10.5 11.5t1 13h-52z" />
    <glyph glyph-name="Ncaron" unicode="&#x147;" horiz-adv-x="722" 
d="M77 0v714h101l376 -579h2v579h90v-714h-104l-373 573h-2v-573h-90zM509 922l-103 -143h-93l-104 143h84l69 -96l70 96h77z" />
    <glyph glyph-name="ncaron" unicode="&#x148;" 
d="M64 0v517h80v-82h2q53 94 168 94q96 0 137 -49.5t41 -139.5v-340h-85v350q0 48 -28 76t-77 28q-75 0 -114 -44.5t-39 -117.5v-292h-85zM429 732l-103 -143h-93l-104 143h84l69 -96l70 96h77z" />
    <glyph glyph-name="Omacron" unicode="&#x14c;" horiz-adv-x="760" 
d="M133 357q0 -76 24.5 -140.5t82 -109t140.5 -44.5t140.5 44.5t82 109t24.5 140.5t-24.5 140.5t-82 109t-140.5 44.5t-140.5 -44.5t-82 -109t-24.5 -140.5zM38 357q0 100 37 183.5t116.5 137t188.5 53.5t188.5 -53.5t116.5 -137t37 -183.5t-37 -183.5t-116.5 -137
t-188.5 -53.5t-188.5 53.5t-116.5 137t-37 183.5zM211 817v55h341v-55h-341z" />
    <glyph glyph-name="omacron" unicode="&#x14d;" horiz-adv-x="574" 
d="M126 258q0 -91 46 -143t115 -52t115 52t46 143t-46 143.5t-115 52.5t-115 -52.5t-46 -143.5zM36 258q0 119 66 195t185 76t185 -76t66 -195q0 -118 -66 -194t-185 -76t-185 76t-66 194zM121 627v55h341v-55h-341z" />
    <glyph glyph-name="Obreve" unicode="&#x14e;" horiz-adv-x="760" 
d="M133 357q0 -76 24.5 -140.5t82 -109t140.5 -44.5t140.5 44.5t82 109t24.5 140.5t-24.5 140.5t-82 109t-140.5 44.5t-140.5 -44.5t-82 -109t-24.5 -140.5zM38 357q0 100 37 183.5t116.5 137t188.5 53.5t188.5 -53.5t116.5 -137t37 -183.5t-37 -183.5t-116.5 -137
t-188.5 -53.5t-188.5 53.5t-116.5 137t-37 183.5zM225 919h50q24 -83 112 -83q40 0 61 20t38 63h51q-11 -65 -52 -101.5t-106 -36.5q-134 0 -154 138z" />
    <glyph glyph-name="obreve" unicode="&#x14f;" horiz-adv-x="574" 
d="M126 258q0 -91 46 -143t115 -52t115 52t46 143t-46 143.5t-115 52.5t-115 -52.5t-46 -143.5zM36 258q0 119 66 195t185 76t185 -76t66 -195q0 -118 -66 -194t-185 -76t-185 76t-66 194zM132 729h50q24 -83 112 -83q40 0 61 20t38 63h51q-11 -65 -52 -101.5t-106 -36.5
q-134 0 -154 138z" />
    <glyph glyph-name="Ohungarumlaut" unicode="&#x150;" horiz-adv-x="760" 
d="M133 357q0 -76 24.5 -140.5t82 -109t140.5 -44.5t140.5 44.5t82 109t24.5 140.5t-24.5 140.5t-82 109t-140.5 44.5t-140.5 -44.5t-82 -109t-24.5 -140.5zM38 357q0 100 37 183.5t116.5 137t188.5 53.5t188.5 -53.5t116.5 -137t37 -183.5t-37 -183.5t-116.5 -137
t-188.5 -53.5t-188.5 53.5t-116.5 137t-37 183.5zM424 779l81 143h105l-120 -143h-66zM268 779l81 143h105l-120 -143h-66z" />
    <glyph glyph-name="ohungarumlaut" unicode="&#x151;" horiz-adv-x="574" 
d="M126 258q0 -91 46 -143t115 -52t115 52t46 143t-46 143.5t-115 52.5t-115 -52.5t-46 -143.5zM36 258q0 119 66 195t185 76t185 -76t66 -195q0 -118 -66 -194t-185 -76t-185 76t-66 194zM327 589l81 143h105l-120 -143h-66zM171 589l81 143h105l-120 -143h-66z" />
    <glyph glyph-name="OE" unicode="&#x152;" horiz-adv-x="1074" 
d="M551 0v69h-2q-25 -41 -76 -63.5t-108 -22.5q-154 0 -240.5 105t-86.5 267q0 165 90 270.5t245 105.5q55 0 105 -19.5t71 -56.5h2v59h477v-80h-382v-227h350v-80h-350v-247h388v-80h-483zM372 63q76 0 127.5 39.5t51.5 101.5v301q0 46 -15 69q-22 33 -65 55t-97 22
q-116 0 -178.5 -86t-62.5 -214q0 -125 63 -206.5t176 -81.5z" />
    <glyph glyph-name="oe" unicode="&#x153;" horiz-adv-x="891" 
d="M415 260q0 194 -144 194q-75 0 -110 -60t-35 -146q0 -75 36 -130t109 -55q54 0 87.5 31t45 72.5t11.5 93.5zM489 308h285q0 67 -37.5 106.5t-103.5 39.5t-105.5 -40.5t-38.5 -105.5zM864 233h-375q-2 -71 37.5 -120.5t111.5 -49.5q51 0 88 26.5t52 74.5h81
q-51 -176 -221 -176q-144 0 -188 102q-44 -102 -179 -102q-116 0 -175.5 76t-59.5 195t60 194.5t175 75.5q135 0 179 -91q26 44 76 67.5t107 23.5q123 0 180 -82.5t51 -213.5z" />
    <glyph glyph-name="Racute" unicode="&#x154;" horiz-adv-x="685" 
d="M78 0v714h336q101 0 159 -50.5t58 -136.5q0 -68 -30.5 -116t-93.5 -65v-2q56 -11 78 -47.5t29 -99.5q1 -9 2.5 -40.5t3 -46t5.5 -38.5t12 -41t19 -31h-106q-12 13 -15 40.5t-4.5 68t-6.5 67.5q-5 31 -10.5 50t-18 39.5t-35 30t-55.5 9.5h-232v-305h-95zM173 385h198
q76 0 120.5 27.5t44.5 99.5q0 56 -31.5 89t-95.5 33h-236v-249zM284 779l86 143h109l-131 -143h-64z" />
    <glyph glyph-name="racute" unicode="&#x155;" horiz-adv-x="333" 
d="M61 0v517h80v-109h2q31 64 76.5 93.5t113.5 27.5v-90q-99 0 -143 -53t-44 -156v-230h-85zM80 589l86 143h109l-131 -143h-64z" />
    <glyph glyph-name="Rcommaaccent" unicode="&#x156;" horiz-adv-x="685" 
d="M78 0v714h336q101 0 159 -50.5t58 -136.5q0 -68 -30.5 -116t-93.5 -65v-2q56 -11 78 -47.5t29 -99.5q1 -9 2.5 -40.5t3 -46t5.5 -38.5t12 -41t19 -31h-106q-12 13 -15 40.5t-4.5 68t-6.5 67.5q-5 31 -10.5 50t-18 39.5t-35 30t-55.5 9.5h-232v-305h-95zM173 385h198
q76 0 120.5 27.5t44.5 99.5q0 56 -31.5 89t-95.5 33h-236v-249zM295 -138v88h111v-77q0 -41 -26.5 -62t-72.5 -21v35q19 5 28.5 12.5t10.5 11.5t1 13h-52z" />
    <glyph glyph-name="rcommaaccent" unicode="&#x157;" horiz-adv-x="333" 
d="M61 0v517h80v-109h2q31 64 76.5 93.5t113.5 27.5v-90q-99 0 -143 -53t-44 -156v-230h-85zM48 -138v88h111v-77q0 -41 -26.5 -62t-72.5 -21v35q19 5 28.5 12.5t10.5 11.5t1 13h-52z" />
    <glyph glyph-name="Rcaron" unicode="&#x158;" horiz-adv-x="685" 
d="M78 0v714h336q101 0 159 -50.5t58 -136.5q0 -68 -30.5 -116t-93.5 -65v-2q56 -11 78 -47.5t29 -99.5q1 -9 2.5 -40.5t3 -46t5.5 -38.5t12 -41t19 -31h-106q-12 13 -15 40.5t-4.5 68t-6.5 67.5q-5 31 -10.5 50t-18 39.5t-35 30t-55.5 9.5h-232v-305h-95zM173 385h198
q76 0 120.5 27.5t44.5 99.5q0 56 -31.5 89t-95.5 33h-236v-249zM491 922l-103 -143h-93l-104 143h84l69 -96l70 96h77z" />
    <glyph glyph-name="rcaron" unicode="&#x159;" horiz-adv-x="333" 
d="M61 0v517h80v-109h2q31 64 76.5 93.5t113.5 27.5v-90q-99 0 -143 -53t-44 -156v-230h-85zM343 732l-103 -143h-93l-104 143h84l69 -96l70 96h77z" />
    <glyph glyph-name="Sacute" unicode="&#x15a;" horiz-adv-x="648" 
d="M581 505h-90q-16 146 -177 146q-69 0 -114.5 -28.5t-45.5 -93.5q0 -35 25 -58.5t65.5 -35.5t89 -22t97.5 -24t89.5 -34.5t65.5 -61t25 -97.5q0 -72 -44 -122t-104.5 -70.5t-130.5 -20.5q-128 0 -211.5 64t-83.5 188h90q0 -85 60 -128.5t148 -43.5q76 0 128.5 30t52.5 100
q0 54 -47 83.5t-114 42.5t-134.5 29.5t-114.5 59t-47 114.5q0 102 76 155.5t183 53.5q116 0 187.5 -56.5t75.5 -169.5zM281 779l86 143h109l-131 -143h-64z" />
    <glyph glyph-name="sacute" unicode="&#x15b;" horiz-adv-x="500" 
d="M31 163h85q2 -53 41 -76.5t98 -23.5q125 0 125 77q0 31 -25 50.5t-62.5 27t-81.5 18.5t-81.5 24t-62.5 44t-25 78q0 72 58 109.5t135 37.5q95 0 150.5 -36.5t61.5 -125.5h-85q-2 31 -21 51.5t-44 28t-55 7.5q-46 0 -78 -15t-32 -51q0 -10 3 -18.5t9.5 -15t13.5 -12
t19 -10.5t21 -8.5t24.5 -7.5t25 -6t27 -6t26.5 -6q37 -8 63 -17.5t52.5 -25.5t40 -42.5t13.5 -61.5q0 -85 -64.5 -124t-155.5 -39q-95 0 -155 42.5t-64 132.5zM204 589l86 143h109l-131 -143h-64z" />
    <glyph glyph-name="Scircumflex" unicode="&#x15c;" horiz-adv-x="648" 
d="M581 505h-90q-16 146 -177 146q-69 0 -114.5 -28.5t-45.5 -93.5q0 -35 25 -58.5t65.5 -35.5t89 -22t97.5 -24t89.5 -34.5t65.5 -61t25 -97.5q0 -72 -44 -122t-104.5 -70.5t-130.5 -20.5q-128 0 -211.5 64t-83.5 188h90q0 -85 60 -128.5t148 -43.5q76 0 128.5 30t52.5 100
q0 54 -47 83.5t-114 42.5t-134.5 29.5t-114.5 59t-47 114.5q0 102 76 155.5t183 53.5q116 0 187.5 -56.5t75.5 -169.5zM175 779l103 143h93l104 -143h-84l-69 96l-70 -96h-77z" />
    <glyph glyph-name="scircumflex" unicode="&#x15d;" horiz-adv-x="500" 
d="M31 163h85q2 -53 41 -76.5t98 -23.5q125 0 125 77q0 31 -25 50.5t-62.5 27t-81.5 18.5t-81.5 24t-62.5 44t-25 78q0 72 58 109.5t135 37.5q95 0 150.5 -36.5t61.5 -125.5h-85q-2 31 -21 51.5t-44 28t-55 7.5q-46 0 -78 -15t-32 -51q0 -10 3 -18.5t9.5 -15t13.5 -12
t19 -10.5t21 -8.5t24.5 -7.5t25 -6t27 -6t26.5 -6q37 -8 63 -17.5t52.5 -25.5t40 -42.5t13.5 -61.5q0 -85 -64.5 -124t-155.5 -39q-95 0 -155 42.5t-64 132.5zM103 589l103 143h93l104 -143h-84l-69 96l-70 -96h-77z" />
    <glyph glyph-name="Scedilla" unicode="&#x15e;" horiz-adv-x="648" 
d="M199 -191l18 44q30 -13 61 -13q24 0 43 7.5t19 23.5q0 14 -13 22.5t-34 8.5q-17 0 -41 -8l-17 28l49 64q-34 3 -66 12q-83 24 -132 83.5t-49 153.5h90q0 -85 60 -128.5t148 -43.5q76 0 128.5 30t52.5 100q0 54 -47 83.5t-114 42.5t-134.5 29.5t-114.5 59t-47 114.5
q0 102 76 155.5t183 53.5q116 0 187.5 -56.5t75.5 -169.5h-90q-16 146 -177 146q-69 0 -114.5 -28.5t-45.5 -93.5q0 -35 25 -58.5t65.5 -35.5t89 -22t97.5 -24t89.5 -34.5t65.5 -61t25 -97.5q0 -72 -44 -122t-104.5 -70.5t-130.5 -20.5h-8l-28 -36l2 -2q10 7 33 7
q35 0 59.5 -19t24.5 -54q0 -46 -37.5 -67.5t-86.5 -21.5q-38 0 -92 19z" />
    <glyph glyph-name="Scedilla" unicode="&#xf6c1;" horiz-adv-x="648" 
d="M199 -191l18 44q30 -13 61 -13q24 0 43 7.5t19 23.5q0 14 -13 22.5t-34 8.5q-17 0 -41 -8l-17 28l49 64q-34 3 -66 12q-83 24 -132 83.5t-49 153.5h90q0 -85 60 -128.5t148 -43.5q76 0 128.5 30t52.5 100q0 54 -47 83.5t-114 42.5t-134.5 29.5t-114.5 59t-47 114.5
q0 102 76 155.5t183 53.5q116 0 187.5 -56.5t75.5 -169.5h-90q-16 146 -177 146q-69 0 -114.5 -28.5t-45.5 -93.5q0 -35 25 -58.5t65.5 -35.5t89 -22t97.5 -24t89.5 -34.5t65.5 -61t25 -97.5q0 -72 -44 -122t-104.5 -70.5t-130.5 -20.5h-8l-28 -36l2 -2q10 7 33 7
q35 0 59.5 -19t24.5 -54q0 -46 -37.5 -67.5t-86.5 -21.5q-38 0 -92 19z" />
    <glyph glyph-name="scedilla" unicode="&#x15f;" horiz-adv-x="500" 
d="M128 -191l18 44q30 -13 61 -13q24 0 43 7.5t19 23.5q0 14 -13 22.5t-34 8.5q-17 0 -41 -8l-17 28l52 68q-22 1 -49 8q-130 31 -136 165h85q2 -53 41 -76.5t98 -23.5q125 0 125 77q0 31 -25 50.5t-62.5 27t-81.5 18.5t-81.5 24t-62.5 44t-25 78q0 72 58 109.5t135 37.5
q95 0 150.5 -36.5t61.5 -125.5h-85q-2 31 -21 51.5t-44 28t-55 7.5q-46 0 -78 -15t-32 -51q0 -10 3 -18.5t9.5 -15t13.5 -12t19 -10.5t21 -8.5t24.5 -7.5t25 -6t27 -6t26.5 -6q37 -8 63 -17.5t52.5 -25.5t40 -42.5t13.5 -61.5q0 -65 -39 -103.5t-103 -51.5q-29 -6 -71 -8
l-32 -41l2 -2q10 7 33 7q35 0 59.5 -19t24.5 -54q0 -46 -37.5 -67.5t-86.5 -21.5q-38 0 -92 19z" />
    <glyph glyph-name="scedilla" unicode="&#xf6c2;" horiz-adv-x="500" 
d="M128 -191l18 44q30 -13 61 -13q24 0 43 7.5t19 23.5q0 14 -13 22.5t-34 8.5q-17 0 -41 -8l-17 28l52 68q-22 1 -49 8q-130 31 -136 165h85q2 -53 41 -76.5t98 -23.5q125 0 125 77q0 31 -25 50.5t-62.5 27t-81.5 18.5t-81.5 24t-62.5 44t-25 78q0 72 58 109.5t135 37.5
q95 0 150.5 -36.5t61.5 -125.5h-85q-2 31 -21 51.5t-44 28t-55 7.5q-46 0 -78 -15t-32 -51q0 -10 3 -18.5t9.5 -15t13.5 -12t19 -10.5t21 -8.5t24.5 -7.5t25 -6t27 -6t26.5 -6q37 -8 63 -17.5t52.5 -25.5t40 -42.5t13.5 -61.5q0 -65 -39 -103.5t-103 -51.5q-29 -6 -71 -8
l-32 -41l2 -2q10 7 33 7q35 0 59.5 -19t24.5 -54q0 -46 -37.5 -67.5t-86.5 -21.5q-38 0 -92 19z" />
    <glyph glyph-name="Scaron" unicode="&#x160;" horiz-adv-x="648" 
d="M581 505h-90q-16 146 -177 146q-69 0 -114.5 -28.5t-45.5 -93.5q0 -35 25 -58.5t65.5 -35.5t89 -22t97.5 -24t89.5 -34.5t65.5 -61t25 -97.5q0 -72 -44 -122t-104.5 -70.5t-130.5 -20.5q-128 0 -211.5 64t-83.5 188h90q0 -85 60 -128.5t148 -43.5q76 0 128.5 30t52.5 100
q0 54 -47 83.5t-114 42.5t-134.5 29.5t-114.5 59t-47 114.5q0 102 76 155.5t183 53.5q116 0 187.5 -56.5t75.5 -169.5zM476 922l-103 -143h-93l-104 143h84l69 -96l70 96h77z" />
    <glyph glyph-name="scaron" unicode="&#x161;" horiz-adv-x="500" 
d="M31 163h85q2 -53 41 -76.5t98 -23.5q125 0 125 77q0 31 -25 50.5t-62.5 27t-81.5 18.5t-81.5 24t-62.5 44t-25 78q0 72 58 109.5t135 37.5q95 0 150.5 -36.5t61.5 -125.5h-85q-2 31 -21 51.5t-44 28t-55 7.5q-46 0 -78 -15t-32 -51q0 -10 3 -18.5t9.5 -15t13.5 -12
t19 -10.5t21 -8.5t24.5 -7.5t25 -6t27 -6t26.5 -6q37 -8 63 -17.5t52.5 -25.5t40 -42.5t13.5 -61.5q0 -85 -64.5 -124t-155.5 -39q-95 0 -155 42.5t-64 132.5zM403 732l-103 -143h-93l-104 143h84l69 -96l70 96h77z" />
    <glyph glyph-name="Tcommaaccent" unicode="&#x162;" horiz-adv-x="574" 
d="M240 0v634h-238v80h571v-80h-238v-634h-95zM231 -138v88h111v-77q0 -41 -26.5 -62t-72.5 -21v35q19 5 28.5 12.5t10.5 11.5t1 13h-52z" />
    <glyph glyph-name="tcommaaccent" unicode="&#x163;" horiz-adv-x="315" 
d="M182 672v-155h103v-75h-103v-321q0 -30 12 -38t52 -8h39v-75h-65q-69 0 -96 22.5t-27 90.5v329h-88v75h88v155h85zM130 -138v88h111v-77q0 -41 -26.5 -62t-72.5 -21v35q19 5 28.5 12.5t10.5 11.5t1 13h-52z" />
    <glyph glyph-name="Tcaron" unicode="&#x164;" horiz-adv-x="574" 
d="M240 0v634h-238v80h571v-80h-238v-634h-95zM435 922l-103 -143h-93l-104 143h84l69 -96l70 96h77z" />
    <glyph glyph-name="tcaron" unicode="&#x165;" horiz-adv-x="363" 
d="M280 571l26 143h109l-75 -143h-60zM182 672v-155h103v-75h-103v-321q0 -30 12 -38t52 -8h39v-75h-65q-69 0 -96 22.5t-27 90.5v329h-88v75h88v155h85z" />
    <glyph glyph-name="Tbar" unicode="&#x166;" horiz-adv-x="574" 
d="M98 431v55h142v148h-238v80h571v-80h-238v-148h144v-55h-144v-431h-95v431h-142z" />
    <glyph glyph-name="tbar" unicode="&#x167;" horiz-adv-x="315" 
d="M-1 291v55h98v96h-88v75h88v155h85v-155h103v-75h-103v-96h113v-55h-113v-170q0 -30 12 -38t52 -8h39v-75h-65q-69 0 -96 22.5t-27 90.5v178h-98z" />
    <glyph glyph-name="Utilde" unicode="&#x168;" horiz-adv-x="722" 
d="M648 714v-456q0 -135 -73 -205t-208 -70q-142 0 -217.5 68t-75.5 207v456h95v-456q0 -95 51 -145t147 -50q91 0 138.5 50t47.5 145v456h95zM482 907h52q-6 -44 -32 -79q-26 -32 -69 -32q-31 0 -75 20q-51 19 -66 19q-19 0 -31 -12q-9 -8 -18 -30h-52q23 110 106 110
q28 0 73.5 -20t65.5 -20q33 0 46 44z" />
    <glyph glyph-name="utilde" unicode="&#x169;" 
d="M492 517v-517h-80v82h-2q-53 -94 -168 -94q-96 0 -137 49.5t-41 139.5v340h85v-350q0 -48 28 -76t77 -28q75 0 114 44.5t39 117.5v292h85zM398 717h52q-6 -44 -32 -79q-26 -32 -69 -32q-31 0 -75 20q-51 19 -66 19q-19 0 -31 -12q-9 -8 -18 -30h-52q23 110 106 110
q28 0 73.5 -20t65.5 -20q33 0 46 44z" />
    <glyph glyph-name="Umacron" unicode="&#x16a;" horiz-adv-x="722" 
d="M648 714v-456q0 -135 -73 -205t-208 -70q-142 0 -217.5 68t-75.5 207v456h95v-456q0 -95 51 -145t147 -50q91 0 138.5 50t47.5 145v456h95zM192 817v55h341v-55h-341z" />
    <glyph glyph-name="umacron" unicode="&#x16b;" 
d="M492 517v-517h-80v82h-2q-53 -94 -168 -94q-96 0 -137 49.5t-41 139.5v340h85v-350q0 -48 28 -76t77 -28q75 0 114 44.5t39 117.5v292h85zM112 627v55h341v-55h-341z" />
    <glyph glyph-name="Ubreve" unicode="&#x16c;" horiz-adv-x="722" 
d="M648 714v-456q0 -135 -73 -205t-208 -70q-142 0 -217.5 68t-75.5 207v456h95v-456q0 -95 51 -145t147 -50q91 0 138.5 50t47.5 145v456h95zM200 919h50q24 -83 112 -83q40 0 61 20t38 63h51q-11 -65 -52 -101.5t-106 -36.5q-134 0 -154 138z" />
    <glyph glyph-name="ubreve" unicode="&#x16d;" 
d="M492 517v-517h-80v82h-2q-53 -94 -168 -94q-96 0 -137 49.5t-41 139.5v340h85v-350q0 -48 28 -76t77 -28q75 0 114 44.5t39 117.5v292h85zM122 729h50q24 -83 112 -83q40 0 61 20t38 63h51q-11 -65 -52 -101.5t-106 -36.5q-134 0 -154 138z" />
    <glyph glyph-name="Uring" unicode="&#x16e;" horiz-adv-x="722" 
d="M648 714v-456q0 -135 -73 -205t-208 -70q-142 0 -217.5 68t-75.5 207v456h95v-456q0 -95 51 -145t147 -50q91 0 138.5 50t47.5 145v456h95zM247 861q0 46 33.5 79t79.5 33t79.5 -33t33.5 -79t-33.5 -79t-79.5 -33t-79.5 33t-33.5 79zM293 860q0 -29 19 -48.5t48 -19.5
t48 19.5t19 48.5t-19 48.5t-48 19.5t-48 -19.5t-19 -48.5z" />
    <glyph glyph-name="uring" unicode="&#x16f;" 
d="M492 517v-517h-80v82h-2q-53 -94 -168 -94q-96 0 -137 49.5t-41 139.5v340h85v-350q0 -48 28 -76t77 -28q75 0 114 44.5t39 117.5v292h85zM165 681q0 46 33.5 79t79.5 33t79.5 -33t33.5 -79t-33.5 -79t-79.5 -33t-79.5 33t-33.5 79zM211 680q0 -29 19 -48.5t48 -19.5
t48 19.5t19 48.5t-19 48.5t-48 19.5t-48 -19.5t-19 -48.5z" />
    <glyph glyph-name="Uhungarumlaut" unicode="&#x170;" horiz-adv-x="722" 
d="M648 714v-456q0 -135 -73 -205t-208 -70q-142 0 -217.5 68t-75.5 207v456h95v-456q0 -95 51 -145t147 -50q91 0 138.5 50t47.5 145v456h95zM404 779l81 143h105l-120 -143h-66zM248 779l81 143h105l-120 -143h-66z" />
    <glyph glyph-name="uhungarumlaut" unicode="&#x171;" 
d="M492 517v-517h-80v82h-2q-53 -94 -168 -94q-96 0 -137 49.5t-41 139.5v340h85v-350q0 -48 28 -76t77 -28q75 0 114 44.5t39 117.5v292h85zM319 589l81 143h105l-120 -143h-66zM163 589l81 143h105l-120 -143h-66z" />
    <glyph glyph-name="Uogonek" unicode="&#x172;" horiz-adv-x="722" 
d="M648 714v-456q0 -135 -74 -206q-63 -60 -177 -68q-9 -8 -23 -22q-42 -42 -42 -80q0 -17 9.5 -29.5t28.5 -12.5q38 0 62 30l32 -18q-36 -62 -108 -62q-92 0 -92 82q0 37 53 88q16 14 31 23q-55 1 -105 16q-169 51 -169 259v456h95v-456q0 -95 51 -145t147 -50
q91 0 138.5 50t47.5 145v456h95z" />
    <glyph glyph-name="uogonek" unicode="&#x173;" 
d="M492 0h-40q-84 -70 -84 -118q0 -17 9.5 -29.5t28.5 -12.5q38 0 62 30l32 -18q-36 -62 -108 -62q-92 0 -92 82q0 8 4 19.5t14.5 29.5t35 39t58.5 40v82h-2q-53 -94 -168 -94q-96 0 -137 49.5t-41 139.5v340h85v-350q0 -48 28 -76t77 -28q75 0 114 44.5t39 117.5v292h85
v-517z" />
    <glyph glyph-name="Wcircumflex" unicode="&#x174;" horiz-adv-x="926" 
d="M914 714l-191 -714h-99l-163 600h-2l-165 -600h-99l-183 714h97l140 -594h2l160 594h103l158 -594h2l145 594h95zM313 779l103 143h93l104 -143h-84l-69 96l-70 -96h-77z" />
    <glyph glyph-name="wcircumflex" unicode="&#x175;" horiz-adv-x="758" 
d="M741 517l-165 -517h-90l-105 411h-2l-104 -411h-92l-166 517h94l117 -423h2l104 423h93l108 -423h2l116 423h88zM233 589l103 143h93l104 -143h-84l-69 96l-70 -96h-77z" />
    <glyph glyph-name="Ycircumflex" unicode="&#x176;" horiz-adv-x="648" 
d="M646 714l-273 -422v-292h-95v292l-276 422h113l214 -340l209 340h108zM179 779l103 143h93l104 -143h-84l-69 96l-70 -96h-77z" />
    <glyph glyph-name="ycircumflex" unicode="&#x177;" horiz-adv-x="500" 
d="M492 517l-225 -586q-31 -77 -62.5 -107.5t-87.5 -30.5q-35 0 -59 9v78q38 -12 50 -12q46 0 70 47l35 88l-205 514h96l151 -423h2l145 423h90zM106 589l103 143h93l104 -143h-84l-69 96l-70 -96h-77z" />
    <glyph glyph-name="Ydieresis" unicode="&#x178;" horiz-adv-x="648" 
d="M646 714l-273 -422v-292h-95v292l-276 422h113l214 -340l209 340h108zM189 792v104h90v-104h-90zM377 792v104h90v-104h-90z" />
    <glyph glyph-name="Zacute" unicode="&#x179;" horiz-adv-x="611" 
d="M22 0v80l444 554h-410v80h522v-80l-443 -554h455v-80h-568zM271 779l86 143h109l-131 -143h-64z" />
    <glyph glyph-name="zacute" unicode="&#x17a;" horiz-adv-x="480" 
d="M22 0v65l312 377h-292v75h402v-58l-316 -384h330v-75h-436zM205 589l86 143h109l-131 -143h-64z" />
    <glyph glyph-name="Zdotaccent" unicode="&#x17b;" horiz-adv-x="611" 
d="M22 0v80l444 554h-410v80h522v-80l-443 -554h455v-80h-568zM359 898v-104h-90v104h90z" />
    <glyph glyph-name="zdotaccent" unicode="&#x17c;" horiz-adv-x="480" 
d="M22 0v65l312 377h-292v75h402v-58l-316 -384h330v-75h-436zM290 708v-104h-90v104h90z" />
    <glyph glyph-name="Zcaron" unicode="&#x17d;" horiz-adv-x="611" 
d="M22 0v80l444 554h-410v80h522v-80l-443 -554h455v-80h-568zM463 922l-103 -143h-93l-104 143h84l69 -96l70 96h77z" />
    <glyph glyph-name="zcaron" unicode="&#x17e;" horiz-adv-x="480" 
d="M22 0v65l312 377h-292v75h402v-58l-316 -384h330v-75h-436zM391 732l-103 -143h-93l-104 143h84l69 -96l70 96h77z" />
    <glyph glyph-name="florin" unicode="&#x192;" 
d="M492 714l-14 -75h-59q-50 0 -62 -52l-31 -138h102l-14 -68h-100l-55 -311q-24 -135 -65 -185t-125 -50h-66l14 75q79 0 103 17t36 85l70 369h-92l13 68h91l26 136q12 59 52 94t102 35h74z" />
    <glyph glyph-name="Scommaaccent" unicode="&#x218;" horiz-adv-x="648" 
d="M581 505h-90q-16 146 -177 146q-69 0 -114.5 -28.5t-45.5 -93.5q0 -35 25 -58.5t65.5 -35.5t89 -22t97.5 -24t89.5 -34.5t65.5 -61t25 -97.5q0 -72 -44 -122t-104.5 -70.5t-130.5 -20.5q-128 0 -211.5 64t-83.5 188h90q0 -85 60 -128.5t148 -43.5q76 0 128.5 30t52.5 100
q0 54 -47 83.5t-114 42.5t-134.5 29.5t-114.5 59t-47 114.5q0 102 76 155.5t183 53.5q116 0 187.5 -56.5t75.5 -169.5zM270 -138v88h111v-77q0 -41 -26.5 -62t-72.5 -21v35q19 5 28.5 12.5t10.5 11.5t1 13h-52z" />
    <glyph glyph-name="scommaaccent" unicode="&#x219;" horiz-adv-x="500" 
d="M31 163h85q2 -53 41 -76.5t98 -23.5q125 0 125 77q0 31 -25 50.5t-62.5 27t-81.5 18.5t-81.5 24t-62.5 44t-25 78q0 72 58 109.5t135 37.5q95 0 150.5 -36.5t61.5 -125.5h-85q-2 31 -21 51.5t-44 28t-55 7.5q-46 0 -78 -15t-32 -51q0 -10 3 -18.5t9.5 -15t13.5 -12
t19 -10.5t21 -8.5t24.5 -7.5t25 -6t27 -6t26.5 -6q37 -8 63 -17.5t52.5 -25.5t40 -42.5t13.5 -61.5q0 -85 -64.5 -124t-155.5 -39q-95 0 -155 42.5t-64 132.5zM196 -138v88h111v-77q0 -41 -26.5 -62t-72.5 -21v35q19 5 28.5 12.5t10.5 11.5t1 13h-52z" />
    <glyph glyph-name="uni021A" unicode="&#x21a;" horiz-adv-x="574" 
d="M240 0v634h-238v80h571v-80h-238v-634h-95zM231 -138v88h111v-77q0 -41 -26.5 -62t-72.5 -21v35q19 5 28.5 12.5t10.5 11.5t1 13h-52z" />
    <glyph glyph-name="uni021B" unicode="&#x21b;" horiz-adv-x="315" 
d="M182 672v-155h103v-75h-103v-321q0 -30 12 -38t52 -8h39v-75h-65q-69 0 -96 22.5t-27 90.5v329h-88v75h88v155h85zM130 -138v88h111v-77q0 -41 -26.5 -62t-72.5 -21v35q19 5 28.5 12.5t10.5 11.5t1 13h-52z" />
    <glyph glyph-name="circumflex" unicode="&#x2c6;" horiz-adv-x="222" 
d="M-39 589l103 143h93l104 -143h-84l-69 96l-70 -96h-77z" />
    <glyph glyph-name="caron" unicode="&#x2c7;" horiz-adv-x="222" 
d="M261 732l-103 -143h-93l-104 143h84l69 -96l70 96h77z" />
    <glyph glyph-name="uni02C9" unicode="&#x2c9;" horiz-adv-x="222" 
d="M-59 627v55h341v-55h-341z" />
    <glyph glyph-name="breve" unicode="&#x2d8;" horiz-adv-x="222" 
d="M-45 729h50q24 -83 112 -83q40 0 61 20t38 63h51q-11 -65 -52 -101.5t-106 -36.5q-134 0 -154 138z" />
    <glyph glyph-name="dotaccent" unicode="&#x2d9;" horiz-adv-x="222" 
d="M156 708v-104h-90v104h90z" />
    <glyph glyph-name="ring" unicode="&#x2da;" horiz-adv-x="222" 
d="M-2 681q0 46 33.5 79t79.5 33t79.5 -33t33.5 -79t-33.5 -79t-79.5 -33t-79.5 33t-33.5 79zM44 680q0 -29 19 -48.5t48 -19.5t48 19.5t19 48.5t-19 48.5t-48 19.5t-48 -19.5t-19 -48.5z" />
    <glyph glyph-name="ogonek" unicode="&#x2db;" horiz-adv-x="222" 
d="M188 0h40q-84 -70 -84 -118q0 -17 9.5 -29.5t28.5 -12.5q38 0 62 30l32 -18q-36 -62 -108 -62q-92 0 -92 82q0 8 4 19.5t14.5 29.5t35 39t58.5 40z" />
    <glyph glyph-name="tilde" unicode="&#x2dc;" horiz-adv-x="222" 
d="M233 717h52q-6 -44 -32 -79q-26 -32 -69 -32q-31 0 -75 20q-51 19 -66 19q-19 0 -31 -12q-9 -8 -18 -30h-52q23 110 106 110q28 0 73.5 -20t65.5 -20q33 0 46 44z" />
    <glyph glyph-name="hungarumlaut" unicode="&#x2dd;" horiz-adv-x="222" 
d="M108 589l81 143h105l-120 -143h-66zM-48 589l81 143h105l-120 -143h-66z" />
    <glyph glyph-name="uni0394" unicode="&#x394;" horiz-adv-x="674" 
d="M550 72l-217 556l-213 -556h430zM662 0h-649l279 712h83z" />
    <glyph glyph-name="uni03A9" unicode="&#x3a9;" horiz-adv-x="748" 
d="M688 0h-256v183q85 17 130.5 77.5t45.5 149.5q0 104 -68 171.5t-172 67.5q-103 0 -172 -68t-69 -171q0 -88 46.5 -150.5t130.5 -76.5v-183h-257v67h193v72q-90 25 -141.5 101t-51.5 173q0 133 94 220.5t227 87.5q134 0 227 -86.5t93 -219.5q0 -99 -50.5 -174.5
t-141.5 -101.5v-72h192v-67z" />
    <glyph glyph-name="uni03BC" unicode="&#x3bc;" 
d="M492 517v-517h-80v82h-2q-53 -94 -168 -94q-67 0 -91 38h-2v-224h-85v715h85v-350q0 -48 28 -76t77 -28q75 0 114 44.5t39 117.5v292h85z" />
    <glyph glyph-name="pi" unicode="&#x3c0;" horiz-adv-x="570" 
d="M547 68v-57q-36 -17 -69 -17q-29 0 -47.5 9t-26 27.5t-10 36.5t-2.5 47v296h-246v-410h-75v410h-69v69h541v-69h-76v-299q0 -26 7 -39.5t31 -13.5q21 0 42 10z" />
    <glyph glyph-name="endash" unicode="&#x2013;" horiz-adv-x="500" 
d="M0 238v80h500v-80h-500z" />
    <glyph glyph-name="emdash" unicode="&#x2014;" horiz-adv-x="1000" 
d="M130 238v80h740v-80h-740z" />
    <glyph glyph-name="quoteleft" unicode="&#x2018;" horiz-adv-x="278" 
d="M195 567v-111h-111v111q0 64 28 105.5t82 41.5v-50q-31 0 -44.5 -28.5t-13.5 -68.5h59z" />
    <glyph glyph-name="quoteright" unicode="&#x2019;" horiz-adv-x="278" 
d="M83 603v111h111v-111q0 -64 -28 -105.5t-82 -41.5v50q31 0 44.5 28.5t13.5 68.5h-59z" />
    <glyph glyph-name="quotesinglbase" unicode="&#x201a;" horiz-adv-x="278" 
d="M83 0v111h111v-111q0 -64 -28 -105.5t-82 -41.5v50q31 0 44.5 28.5t13.5 68.5h-59z" />
    <glyph glyph-name="quotedblleft" unicode="&#x201c;" horiz-adv-x="426" 
d="M177 567v-111h-111v111q0 64 28 105.5t82 41.5v-50q-31 0 -44.5 -28.5t-13.5 -68.5h59zM360 567v-111h-111v111q0 64 28 105.5t82 41.5v-50q-31 0 -44.5 -28.5t-13.5 -68.5h59z" />
    <glyph glyph-name="quotedblright" unicode="&#x201d;" horiz-adv-x="426" 
d="M66 603v111h111v-111q0 -64 -28 -105.5t-82 -41.5v50q31 0 44.5 28.5t13.5 68.5h-59zM249 603v111h111v-111q0 -64 -28 -105.5t-82 -41.5v50q31 0 44.5 28.5t13.5 68.5h-59z" />
    <glyph glyph-name="quotedblbase" unicode="&#x201e;" horiz-adv-x="426" 
d="M249 0v111h111v-111q0 -64 -28 -105.5t-82 -41.5v50q31 0 44.5 28.5t13.5 68.5h-59zM66 0v111h111v-111q0 -64 -28 -105.5t-82 -41.5v50q31 0 44.5 28.5t13.5 68.5h-59z" />
    <glyph glyph-name="dagger" unicode="&#x2020;" 
d="M236 -155v597h-194v75h194v197h80v-197h198v-75h-198v-597h-80z" />
    <glyph glyph-name="daggerdbl" unicode="&#x2021;" 
d="M236 -155v197h-194v75h194v325h-194v75h194v197h80v-197h198v-75h-198v-325h198v-75h-198v-197h-80z" />
    <glyph glyph-name="bullet" unicode="&#x2022;" horiz-adv-x="500" 
d="M72 357q0 74 52 126t126 52t126.5 -52t52.5 -126t-52.5 -126.5t-126.5 -52.5t-126 52.5t-52 126.5z" />
    <glyph glyph-name="ellipsis" unicode="&#x2026;" horiz-adv-x="1000" 
d="M777 0v111h111v-111h-111zM444 0v111h111v-111h-111zM111 0v111h111v-111h-111z" />
    <glyph glyph-name="perthousand" unicode="&#x2030;" horiz-adv-x="1148" 
d="M857 158q0 -115 72 -115q40 0 56 34t16 80q0 19 -3 37t-9.5 37.5t-21 31t-34.5 11.5q-41 0 -58.5 -34.5t-17.5 -81.5zM782 155q0 79 35.5 126.5t112.5 47.5q75 0 110.5 -46t35.5 -123t-40 -127q-37 -45 -108 -45q-74 0 -110 45.5t-36 121.5zM512 158q0 -115 72 -115
q40 0 56 34t16 80q0 19 -3 37t-9.5 37.5t-21 31t-34.5 11.5q-41 0 -58.5 -34.5t-17.5 -81.5zM437 155q0 79 35.5 126.5t112.5 47.5q75 0 110.5 -46t35.5 -123t-40 -127q-37 -45 -108 -45q-74 0 -110 45.5t-36 121.5zM90 -22l538 744h85l-537 -744h-86zM147 538
q0 -115 72 -115q40 0 56 34t16 80q0 19 -3 37t-9.5 37.5t-21 31t-34.5 11.5q-41 0 -58.5 -34.5t-17.5 -81.5zM72 535q0 79 35.5 126.5t112.5 47.5q75 0 110.5 -46t35.5 -123t-40 -127q-37 -45 -108 -45q-74 0 -110 45.5t-36 121.5z" />
    <glyph glyph-name="guilsinglleft" unicode="&#x2039;" horiz-adv-x="259" 
d="M202 114l-152 120v88l152 120v-86l-100 -78l100 -78v-86z" />
    <glyph glyph-name="guilsinglright" unicode="&#x203a;" horiz-adv-x="259" 
d="M57 442l152 -120v-88l-152 -120v86l100 78l-100 78v86z" />
    <glyph glyph-name="fraction" unicode="&#x2044;" horiz-adv-x="167" 
d="M-166 -28l435 753h64l-435 -753h-64z" />
    <glyph glyph-name="afii61289" unicode="&#x2113;" horiz-adv-x="500" 
d="M415 41q-59 -55 -130 -55q-57 0 -92 33t-35 95v114l-58 -62h-2l-26 37l86 84v259q0 81 36.5 128t92.5 47q49 0 79.5 -34.5t30.5 -93.5q0 -142 -171 -318v-150q0 -47 22 -67t53 -20q46 0 88 38h2zM340 588q0 38 -15 61.5t-38 23.5q-25 0 -43 -30t-18 -86v-222
q114 132 114 253z" />
    <glyph glyph-name="trademark" unicode="&#x2122;" horiz-adv-x="990" 
d="M927 714v-412h-68v344h-2l-135 -344h-43l-135 344h-2v-344h-68v412h105l123 -313l121 313h104zM390 714v-55h-129v-357h-68v357h-129v55h326z" />
    <glyph glyph-name="Omega" unicode="&#x2126;" horiz-adv-x="748" 
d="M688 0h-256v183q85 17 130.5 77.5t45.5 149.5q0 104 -68 171.5t-172 67.5q-103 0 -172 -68t-69 -171q0 -88 46.5 -150.5t130.5 -76.5v-183h-257v67h193v72q-90 25 -141.5 101t-51.5 173q0 133 94 220.5t227 87.5q134 0 227 -86.5t93 -219.5q0 -99 -50.5 -174.5
t-141.5 -101.5v-72h192v-67z" />
    <glyph glyph-name="estimated" unicode="&#x212e;" horiz-adv-x="600" 
d="M561 259h-404v-181q59 -59 145 -59q122 0 193 120l35 -21q-46 -72 -98 -103.5t-130 -31.5q-115 0 -186.5 79t-71.5 197q0 119 71 197.5t187 78.5q115 0 186.5 -77t72.5 -199zM157 295h291v145q-63 60 -147 60t-144 -60v-145z" />
    <glyph glyph-name="partialdiff" unicode="&#x2202;" horiz-adv-x="511" 
d="M389 280q-63 85 -148 85q-63 0 -98.5 -45.5t-35.5 -109.5t35 -113t97 -49q52 0 87.5 41t49 91t13.5 100zM469 362q0 -52 -5 -98.5t-20 -99t-39.5 -89.5t-67.5 -62t-100 -25q-92 0 -148 66t-56 159q0 91 54.5 152.5t144.5 61.5q96 0 161 -76q0 7 0.5 22t0.5 23q0 44 -9 87
t-27.5 83.5t-54 66t-82.5 25.5q-53 0 -114 -47l-42 50q68 60 153 60q57 0 101.5 -22t72 -57.5t45.5 -84t25 -96.5t7 -99z" />
    <glyph glyph-name="Delta" unicode="&#x2206;" horiz-adv-x="674" 
d="M550 72l-217 556l-213 -556h430zM662 0h-649l279 712h83z" />
    <glyph glyph-name="product" unicode="&#x220f;" horiz-adv-x="719" 
d="M650 -214h-78v928h-426v-928h-78v1000h582v-1000z" />
    <glyph glyph-name="summation" unicode="&#x2211;" horiz-adv-x="615" 
d="M589 -214h-564v64l322 440l-308 432v64h538v-72h-437l301 -424l-319 -432h467v-72z" />
    <glyph glyph-name="minus" unicode="&#x2212;" horiz-adv-x="600" 
d="M48 219v68h504v-68h-504z" />
    <glyph glyph-name="uni2215" unicode="&#x2215;" horiz-adv-x="167" 
d="M-166 -28l435 753h64l-435 -753h-64z" />
    <glyph glyph-name="uni2219" unicode="&#x2219;" horiz-adv-x="278" 
d="M75 311q0 26 19 45t45 19t45 -19t19 -45q0 -24 -19.5 -44t-43.5 -20q-26 0 -45.5 19t-19.5 45z" />
    <glyph glyph-name="radical" unicode="&#x221a;" horiz-adv-x="504" 
d="M514 786l-211 -1000h-75l-162 334l-47 -22l-28 60l112 52l151 -317l184 893h76z" />
    <glyph glyph-name="infinity" unicode="&#x221e;" horiz-adv-x="759" 
d="M337 251q-29 27 -45 40.5t-48 31.5t-57 18q-37 0 -58.5 -26t-21.5 -63q0 -39 22 -62.5t61 -23.5q62 0 147 85zM652 252q0 40 -21.5 65t-60.5 25q-12 0 -23.5 -3t-24 -9.5t-21.5 -11.5t-22.5 -16.5t-19 -16.5t-20 -18.5t-16.5 -15.5q32 -30 46 -42t44.5 -27.5t59.5 -15.5
q37 0 58 24.5t21 61.5zM717 255q0 -68 -40 -112.5t-107 -44.5q-87 0 -190 109q-3 -3 -23.5 -21.5t-26 -23t-23 -18.5t-28 -19t-26.5 -13t-31.5 -10.5t-32.5 -2.5q-66 0 -106.5 43t-40.5 110q0 66 39.5 111t105.5 45q38 0 76.5 -20t58.5 -38t58 -56l17.5 17.5t19 18.5t18 17
t20 17.5t19.5 14t22.5 13.5t22 9t25 7t25.5 2q66 0 107 -44t41 -111z" />
    <glyph glyph-name="integral" unicode="&#x222b;" horiz-adv-x="554" 
d="M420 730q0 -17 -12 -27.5t-30 -10.5t-34 21.5t-22 21.5q-8 0 -14.5 -7t-9.5 -18.5t-5 -25t-2 -29v-27t0.5 -22.5t0.5 -12l1 -39v-511q0 -119 -15 -167q-27 -90 -111 -90q-26 0 -47.5 13.5t-21.5 38.5q0 14 11.5 25t25.5 11q18 0 32.5 -21t19.5 -21q7 0 12.5 7.5t8.5 20.5
t5 27.5t2.5 31.5t0.5 28.5v23.5l-1 12v22v495q0 9 -0.5 39t-0.5 46.5t2 46t6.5 47.5t14 40.5t23 35t34 21.5t47.5 9q31 0 55 -14t24 -42z" />
    <glyph glyph-name="approxequal" unicode="&#x2248;" horiz-adv-x="593" 
d="M510 234h50q-7 -63 -38.5 -104t-90.5 -41q-45 0 -143 36t-129 36t-51 -23t-24 -55h-52q23 148 129 148q45 0 140 -35.5t134 -35.5q60 0 75 74zM511 415h50q-7 -63 -39 -104.5t-91 -41.5q-46 0 -143 35.5t-128 35.5q-30 0 -50 -22.5t-26 -54.5h-51q7 62 38.5 105t90.5 43
q44 0 139.5 -35.5t134.5 -35.5q60 0 75 75z" />
    <glyph glyph-name="notequal" unicode="&#x2260;" horiz-adv-x="593" 
d="M550 114h-287l-76 -146l-62 32l59 114h-141v72h178l67 127h-245v71h283l77 148l62 -32l-61 -116h146v-71h-183l-67 -127h250v-72z" />
    <glyph glyph-name="lessequal" unicode="&#x2264;" horiz-adv-x="593" 
d="M550 -30h-507v72h507v-72zM550 82l-507 184v75l507 187v-78l-408 -146l408 -145v-77z" />
    <glyph glyph-name="greaterequal" unicode="&#x2265;" horiz-adv-x="593" 
d="M550 -30h-507v72h507v-72zM550 266l-507 -184v77l408 145l-408 146v78l507 -187v-75z" />
    <glyph glyph-name="lozenge" unicode="&#x25ca;" horiz-adv-x="593" 
d="M428 356l-132 315l-131 -315l131 -315zM504 356l-172 -391h-72l-171 391l171 391h72z" />
    <glyph glyph-name="commaaccent" unicode="&#xf004;" horiz-adv-x="278" 
d="M81 -138v88h111v-77q0 -41 -26.5 -62t-72.5 -21v35q19 5 28.5 12.5t10.5 11.5t1 13h-52z" />
    <glyph glyph-name="commaaccent" unicode="&#xf6c3;" horiz-adv-x="278" 
d="M81 -138v88h111v-77q0 -41 -26.5 -62t-72.5 -21v35q19 5 28.5 12.5t10.5 11.5t1 13h-52z" />
    <glyph glyph-name="dotlessj" unicode="&#xf6be;" horiz-adv-x="222" 
d="M154 517v-583q0 -132 -124 -132q-24 0 -44 4v73q12 -2 17 -2h18q28 0 38 15.5t10 55.5v569h85z" />
    <glyph glyph-name="dotlessj" unicode="&#xfb0f;" horiz-adv-x="222" 
d="M154 517v-583q0 -132 -124 -132q-24 0 -44 4v73q12 -2 17 -2h18q28 0 38 15.5t10 55.5v569h85z" />
    <glyph glyph-name="uniF8FF" unicode="&#xf8ff;" horiz-adv-x="512" 
d="M222 117h56v67h-56v-67zM225 234h46q0 52 6 72q6 19 43 52q37 34 50 60t13 60q0 59 -35 95t-89 36q-56 0 -92 -34t-43 -103l50 -8q11 95 82 95q31 0 53.5 -24.5t22.5 -60.5q0 -20 -9.5 -37t-40.5 -46q-31 -31 -46 -59q-13 -25 -13 -81zM462 50h-412v617h412v-617z
M512 718h-512v-718h512v718z" />
    <glyph glyph-name="commaaccent.alt" horiz-adv-x="278" 
d="M194 714v-88h-111v77q0 41 26.5 62t72.5 21v-35q-19 -5 -28.5 -12.5t-10.5 -11.5t-1 -13h52z" />
    <glyph glyph-name="caron.alt" horiz-adv-x="222" 
d="M80 571l26 143h109l-75 -143h-60z" />
    <glyph glyph-name="grave.cap" horiz-adv-x="222" 
d="M108 779l-131 143h109l86 -143h-64z" />
    <glyph glyph-name="acute.cap" horiz-adv-x="222" 
d="M50 779l86 143h109l-131 -143h-64z" />
    <glyph glyph-name="circumflex.cap" horiz-adv-x="222" 
d="M-39 779l103 143h93l104 -143h-84l-69 96l-70 -96h-77z" />
    <glyph glyph-name="caron.cap" horiz-adv-x="222" 
d="M261 922l-103 -143h-93l-104 143h84l69 -96l70 96h77z" />
    <glyph glyph-name="tilde.cap" horiz-adv-x="222" 
d="M233 907h52q-6 -44 -32 -79q-26 -32 -69 -32q-31 0 -75 20q-51 19 -66 19q-19 0 -31 -12q-9 -8 -18 -30h-52q23 110 106 110q28 0 73.5 -20t65.5 -20q33 0 46 44z" />
    <glyph glyph-name="dieresis.cap" horiz-adv-x="222" 
d="M-28 793v104h90v-104h-90zM160 793v104h90v-104h-90z" />
    <glyph glyph-name="macron.cap" horiz-adv-x="222" 
d="M-59 817v55h341v-55h-341z" />
    <glyph glyph-name="breve.cap" horiz-adv-x="222" 
d="M-45 919h50q24 -83 112 -83q40 0 61 20t38 63h51q-11 -65 -52 -101.5t-106 -36.5q-134 0 -154 138z" />
    <glyph glyph-name="ring.cap" horiz-adv-x="222" 
d="M-2 861q0 46 33.5 79t79.5 33t79.5 -33t33.5 -79t-33.5 -79t-79.5 -33t-79.5 33t-33.5 79zM44 860q0 -29 19 -48.5t48 -19.5t48 19.5t19 48.5t-19 48.5t-48 19.5t-48 -19.5t-19 -48.5z" />
    <glyph glyph-name="hungarumlaut.cap" horiz-adv-x="222" 
d="M108 779l81 143h105l-120 -143h-66zM-48 779l81 143h105l-120 -143h-66z" />
    <glyph glyph-name="dotaccent.cap" horiz-adv-x="222" 
d="M156 897v-104h-90v104h90z" />
  </font>
</defs>
</svg>
