<?xml version="1.0" standalone="no"?>
<!DOCTYPE svg PUBLIC "-//W3C//DTD SVG 1.1//EN" "http://www.w3.org/Graphics/SVG/1.1/DTD/svg11.dtd" >
<svg>
<metadata>
Created by FontForge 20110222 at Tue Mar  3 16:46:19 2015
 By deploy user
Copyright (c) 1988, 1990, 1993, 2003 Linotype Library GmbH, www.linotype.com. All rights reserved. Copyright (c) 1988, 1990, 1993 Adobe Systems Incorporated. All Rights Reserved.
</metadata>
<defs>
<font id="HelveticaNeueLTPro-Bd" horiz-adv-x="593" >
  <font-face 
    font-family="HelveticaNeueLT Pro 75 Bd"
    font-weight="700"
    font-stretch="normal"
    units-per-em="1000"
    panose-1="2 11 8 4 2 2 2 2 2 4"
    ascent="714"
    descent="-286"
    x-height="517"
    cap-height="714"
    bbox="-166 -217 1078 988"
    underline-thickness="50"
    underline-position="-50"
    unicode-range="U+000D-FB02"
  />
<missing-glyph horiz-adv-x="512" 
d="M222 117h56v67h-56v-67zM225 234h46q0 52 6 72q6 19 43 52q37 34 50 60t13 60q0 59 -35 95t-89 36q-56 0 -92 -34t-43 -103l50 -8q11 95 82 95q31 0 53.5 -24.5t22.5 -60.5q0 -20 -9.5 -37t-40.5 -46q-31 -31 -46 -59q-13 -25 -13 -81zM462 50h-412v617h412v-617z
M512 718h-512v-718h512v718z" />
    <glyph glyph-name="IJ" unicode="IJ" horiz-adv-x="848" 
d="M69 0v714h157v-714h-157zM779 714v-489q0 -242 -238 -242q-98 0 -166.5 55.5t-68.5 165.5v62h142v-32q0 -58 19.5 -88.5t71.5 -30.5q29 0 47.5 10t25.5 30.5t8.5 35.5t1.5 41v482h157z" />
    <glyph glyph-name="ij" unicode="ij" horiz-adv-x="510" 
d="M200 714v-117h-142v117h142zM58 0v517h142v-517h-142zM441 714v-117h-142v117h142zM213 -178v117q11 -4 31 -4q55 0 55 46v536h142v-543q0 -83 -39 -119.5t-143 -36.5q-26 0 -46 4z" />
    <glyph glyph-name="napostrophe" unicode="&#x22;n" horiz-adv-x="605" 
d="M66 0v517h135v-72h3q26 42 68.5 64t89.5 22q107 0 148 -54t41 -159v-318h-142v292q0 65 -21 96t-70 31q-58 0 -84 -35t-26 -113v-271h-142zM-12 714v93h145v-73q0 -58 -34 -76t-101 -18v37q48 4 57 37h-67z" />
    <glyph glyph-name="fi" unicode="fi" horiz-adv-x="611" 
d="M85 0v422h-85v95h85v40q0 71 44.5 114t128.5 43q14 0 41 -2t34 -2v-106q-25 3 -52 3q-29 0 -41.5 -13.5t-12.5 -45.5v-31h98v-95h-98v-422h-142zM411 0v517h142v-517h-142zM553 714v-117h-142v117h142z" />
    <glyph glyph-name="fl" unicode="fl" horiz-adv-x="611" 
d="M85 0v422h-85v95h85v40q0 71 44.5 114t128.5 43q14 0 41 -2t34 -2v-106q-25 3 -52 3q-29 0 -41.5 -13.5t-12.5 -45.5v-31h98v-95h-98v-422h-142zM411 0v714h142v-714h-142z" />
    <glyph glyph-name=".notdef" horiz-adv-x="512" 
d="M222 117h56v67h-56v-67zM225 234h46q0 52 6 72q6 19 43 52q37 34 50 60t13 60q0 59 -35 95t-89 36q-56 0 -92 -34t-43 -103l50 -8q11 95 82 95q31 0 53.5 -24.5t22.5 -60.5q0 -20 -9.5 -37t-40.5 -46q-31 -31 -46 -59q-13 -25 -13 -81zM462 50h-412v617h412v-617z
M512 718h-512v-718h512v718z" />
    <glyph glyph-name=".null" horiz-adv-x="500" 
 />
    <glyph glyph-name=".null" horiz-adv-x="500" 
 />
    <glyph glyph-name="nonmarkingreturn" horiz-adv-x="333" 
 />
    <glyph glyph-name="CR" unicode="&#xd;" horiz-adv-x="0" 
 />
    <glyph glyph-name="space" unicode=" " horiz-adv-x="278" 
 />
    <glyph glyph-name="exclam" unicode="!" horiz-adv-x="278" 
d="M61 0v154h157v-154h-157zM213 714v-192l-39 -308h-71l-38 308v192h148z" />
    <glyph glyph-name="quotedbl" unicode="&#x22;" horiz-adv-x="463" 
d="M85 393v321h107v-321h-107zM271 393v321h107v-321h-107z" />
    <glyph glyph-name="numbersign" unicode="#" horiz-adv-x="556" 
d="M339 412h-96l-18 -124h97zM88 0l28 198h-83v90h95l18 124h-83v90h95l28 198h97l-28 -198h97l27 198h97l-27 -198h74v-90h-87l-17 -124h74v-90h-87l-27 -198h-97l27 198h-96l-28 -198h-97z" />
    <glyph glyph-name="dollar" unicode="$" horiz-adv-x="556" 
d="M-1 232h142q-1 -54 29 -88.5t78 -43.5v209q-8 3 -32 9q-44 11 -74.5 24t-62 35t-47.5 57t-16 83q0 97 67 152t165 62v77h59v-77q97 -11 158 -63t67 -150h-142q-1 40 -25 68t-58 28v-177q32 -8 51 -13q56 -15 95.5 -39t59.5 -46t30.5 -53t12 -49t1.5 -45q0 -19 -6.5 -42.5
t-24.5 -52t-44.5 -52t-72 -41t-102.5 -21.5v-85h-59v85q-227 17 -249 249zM307 292v-192q43 4 75.5 29t32.5 69q0 38 -23.5 58t-84.5 36zM248 451v163q-37 0 -63.5 -21.5t-26.5 -61.5q0 -33 20.5 -51t69.5 -29z" />
    <glyph glyph-name="percent" unicode="%" horiz-adv-x="1000" 
d="M693 182q0 -19 0.5 -30t4 -30.5t9.5 -31t19 -20.5t31 -9q66 0 66 120t-62 120q-68 0 -68 -119zM591 183q0 86 43 139.5t127 53.5q164 0 164 -197q0 -86 -42.5 -139.5t-126.5 -53.5q-87 0 -126 54t-39 143zM254 -22l414 744h85l-412 -744h-87zM177 514q0 -18 0.5 -29
t4 -29.5t9.5 -29t19 -19t31 -8.5q66 0 66 114q0 126 -62 126q-68 0 -68 -125zM75 516q0 87 43 142.5t127 55.5q87 0 125.5 -55.5t38.5 -146.5q0 -86 -42.5 -137t-126.5 -51q-165 0 -165 192z" />
    <glyph glyph-name="ampersand" unicode="&#x26;" horiz-adv-x="685" 
d="M522 0l-58 71q-87 -85 -201 -85q-100 0 -165.5 57.5t-65.5 156.5q0 70 45 122t115 85q-34 41 -51 75t-17 77q0 72 55.5 117.5t130.5 45.5q85 0 140.5 -45t55.5 -126q0 -109 -127 -178l92 -113q19 34 26 85h123q-11 -102 -69 -176l145 -169h-174zM389 166l-122 149
q-43 -18 -71.5 -48t-28.5 -70q0 -38 31 -66t71 -28q64 0 120 63zM382 559q0 28 -19.5 48t-45.5 20q-27 0 -45.5 -18t-18.5 -45q0 -9 1.5 -18t5.5 -17.5t6.5 -14.5t9.5 -15.5t10 -13.5t12 -14.5t11 -13.5q36 23 54.5 45t18.5 57z" />
    <glyph glyph-name="quotesingle" unicode="'" horiz-adv-x="278" 
d="M86 393v321h107v-321h-107z" />
    <glyph glyph-name="parenleft" unicode="(" horiz-adv-x="296" 
d="M184 731h119q-109 -205 -109 -453q0 -251 108 -460h-118q-132 218 -132 450q0 118 34.5 244.5t97.5 218.5z" />
    <glyph glyph-name="parenright" unicode=")" horiz-adv-x="296" 
d="M112 -182h-119q109 205 109 452q0 252 -108 461h118q132 -218 132 -451q0 -118 -34.5 -245t-97.5 -217z" />
    <glyph glyph-name="asterisk" unicode="*" horiz-adv-x="407" 
d="M242 714v-125l116 44l27 -77l-118 -39l74 -98l-66 -49l-74 103l-70 -103l-67 49l74 98l-116 39l27 77l113 -44v125h80z" />
    <glyph glyph-name="plus" unicode="+" horiz-adv-x="600" 
d="M354 505v-199h199v-107h-199v-199h-107v199h-199v107h199v199h107z" />
    <glyph glyph-name="comma" unicode="," horiz-adv-x="278" 
d="M61 0v154h157v-154q0 -66 -44.5 -111t-111.5 -55v72q31 6 52 33.5t19 60.5h-72z" />
    <glyph glyph-name="hyphen" unicode="-" horiz-adv-x="407" 
d="M53 212v122h301v-122h-301z" />
    <glyph glyph-name="period" unicode="." horiz-adv-x="278" 
d="M60 0v154h157v-154h-157z" />
    <glyph glyph-name="slash" unicode="/" horiz-adv-x="371" 
d="M-11 -17l279 748h114l-279 -748h-114z" />
    <glyph glyph-name="zero" unicode="0" horiz-adv-x="556" 
d="M163 353q0 -35 0.5 -57.5t6.5 -63.5t17 -65.5t34.5 -44t55.5 -19.5q33 0 56.5 19.5t34.5 44t17 65.5t7 63.5t1 57.5q0 23 -0.5 37t-2.5 42.5t-6 47.5t-12.5 43t-20.5 38.5t-31 25t-43 10.5q-27 0 -48 -12t-33 -36t-19 -45.5t-10 -55.5t-3.5 -50.5t-0.5 -44.5zM21 353
q0 192 70.5 276.5t185.5 84.5q55 0 100 -18.5t81.5 -59t56.5 -112.5t20 -171q0 -196 -71 -281.5t-187 -85.5q-115 0 -185.5 85.5t-70.5 281.5z" />
    <glyph glyph-name="one" unicode="1" horiz-adv-x="556" 
d="M392 700v-700h-142v454h-176v107q82 -2 138 31t67 108h113z" />
    <glyph glyph-name="two" unicode="2" horiz-adv-x="556" 
d="M173 431h-136q-4 124 63.5 203.5t190.5 79.5q100 0 170 -60t70 -159q0 -60 -23.5 -105.5t-63 -77t-81 -57t-87 -60.5t-72.5 -73h331v-122h-514q0 40 7 73.5t24.5 62.5t32.5 49.5t47 46.5t50.5 39.5t59.5 41.5q6 4 37 25t42.5 30.5t31.5 29.5t28 40.5t8 45.5
q0 50 -29.5 79t-75.5 29q-58 0 -84.5 -48t-26.5 -113z" />
    <glyph glyph-name="three" unicode="3" horiz-adv-x="556" 
d="M228 317v100q26 -2 49.5 0.5t47 11t38 28t14.5 47.5q0 43 -29 68t-70 25q-52 0 -80.5 -34.5t-27.5 -90.5h-135q4 109 69 175.5t173 66.5q91 0 163 -53t72 -141q0 -52 -25.5 -90.5t-72.5 -52.5v-2q57 -13 90.5 -56t33.5 -103q0 -106 -76 -168t-184 -62q-120 0 -191 68
t-69 187h135q2 -61 33 -99.5t90 -38.5q49 0 81.5 30.5t32.5 79.5q0 26 -6.5 44.5t-21 29.5t-26.5 17.5t-36 9t-35.5 3t-36.5 0.5z" />
    <glyph glyph-name="four" unicode="4" horiz-adv-x="556" 
d="M312 279v243h-3l-181 -243h184zM312 0v162h-296v130l304 408h127v-421h93v-117h-93v-162h-135z" />
    <glyph glyph-name="five" unicode="5" horiz-adv-x="556" 
d="M500 700v-117h-289l-28 -159l2 -2q54 54 137 54q100 0 158 -68t58 -170q0 -107 -77 -180.5t-183 -71.5q-108 0 -183 58.5t-77 163.5h142q5 -47 36.5 -76t78.5 -29q54 0 87.5 40t33.5 95q0 56 -32.5 93.5t-88.5 37.5q-37 0 -61 -13t-46 -43h-128l69 387h391z" />
    <glyph glyph-name="six" unicode="6" horiz-adv-x="556" 
d="M286 363q-54 0 -83.5 -37.5t-29.5 -92.5q0 -52 31 -91t82 -39q49 0 78 38.5t29 89.5q0 54 -27.5 93t-79.5 39zM523 520h-135q-7 37 -32.5 62t-61.5 25t-63 -22t-41.5 -56.5t-21.5 -68t-8 -66.5l2 -2q54 78 158 78q45 0 88 -19.5t73 -52.5q54 -63 54 -156
q0 -109 -68.5 -182.5t-176.5 -73.5q-76 0 -131 31t-83.5 84.5t-41.5 114t-13 132.5q0 68 15.5 130.5t47 116.5t86.5 86.5t126 32.5q92 0 153.5 -51t73.5 -143z" />
    <glyph glyph-name="seven" unicode="7" horiz-adv-x="556" 
d="M517 700v-122q-104 -91 -165.5 -258.5t-63.5 -319.5h-152q12 154 73 300t162 268h-332v132h478z" />
    <glyph glyph-name="eight" unicode="8" horiz-adv-x="556" 
d="M172 510q0 -43 31 -67.5t76 -24.5q46 0 75.5 24t29.5 68q0 37 -23.5 67t-81.5 30q-45 0 -76 -26t-31 -71zM43 523q0 89 71.5 140t164.5 51q62 0 109.5 -19.5t73.5 -49.5t38.5 -60.5t12.5 -58.5q0 -53 -26.5 -91.5t-75.5 -55.5v-2q63 -14 97 -59.5t34 -111.5
q0 -71 -39 -122t-97 -74.5t-126 -23.5q-110 0 -188 56t-78 163q0 67 35 112t97 60v2q-50 14 -76.5 52.5t-26.5 91.5zM156 212q0 -53 36 -86t88 -33t86 33t34 85q0 49 -34.5 80.5t-85.5 31.5q-54 0 -89 -29.5t-35 -81.5z" />
    <glyph glyph-name="nine" unicode="9" horiz-adv-x="556" 
d="M270 337q54 0 83.5 37.5t29.5 92.5q0 52 -31 91t-82 39q-49 0 -78 -38.5t-29 -89.5q0 -54 27.5 -93t79.5 -39zM33 180h135q7 -37 32.5 -62t61.5 -25q37 0 64 21.5t41 57t20.5 67.5t8.5 67l-2 2q-54 -78 -158 -78q-45 0 -88 19.5t-73 52.5q-54 63 -54 156
q0 109 68.5 182.5t176.5 73.5q76 0 131 -31t83.5 -84.5t41.5 -114t13 -132.5q0 -68 -15.5 -130.5t-47 -116.5t-86.5 -86.5t-126 -32.5q-92 0 -153.5 51t-73.5 143z" />
    <glyph glyph-name="colon" unicode=":" horiz-adv-x="278" 
d="M218 508v-154h-157v154h157zM61 0v154h157v-154h-157z" />
    <glyph glyph-name="semicolon" unicode=";" horiz-adv-x="278" 
d="M218 508v-154h-157v154h157zM61 0v154h157v-154q0 -66 -44.5 -111t-111.5 -55v72q31 6 52 33.5t19 60.5h-72z" />
    <glyph glyph-name="less" unicode="&#x3c;" horiz-adv-x="600" 
d="M554 514v-115l-367 -146l367 -146v-115l-508 202v118z" />
    <glyph glyph-name="equal" unicode="=" horiz-adv-x="600" 
d="M553 199v-107h-505v107h505zM553 413v-107h-505v107h505z" />
    <glyph glyph-name="greater" unicode="&#x3e;" horiz-adv-x="600" 
d="M46 -8v115l367 146l-367 146v115l508 -202v-118z" />
    <glyph glyph-name="question" unicode="?" horiz-adv-x="556" 
d="M193 0v154h157v-154h-157zM179 484h-147q2 109 68 178t175 69q67 0 117.5 -19t78 -49.5t40.5 -62t13 -62.5q0 -53 -17 -90.5t-42.5 -58.5t-51 -38.5t-46 -41.5t-25.5 -57v-38h-135v45q4 48 22 83t41 54.5t45.5 36.5t37.5 39t14 52q0 90 -85 90q-51 0 -77 -36.5t-26 -93.5
z" />
    <glyph glyph-name="at" unicode="@" horiz-adv-x="800" 
d="M622 545l-63 -258q-8 -26 -8 -43q0 -23 17 -23q45 0 81.5 53t36.5 131q0 116 -76.5 181t-194.5 65q-127 0 -205 -83.5t-78 -212.5q0 -130 82.5 -211t212.5 -81q133 0 215 82h84q-51 -78 -131 -120t-174 -42q-161 0 -273 107.5t-112 266.5q0 157 111.5 265.5t268.5 108.5
q141 0 244.5 -85.5t103.5 -219.5q0 -72 -27.5 -131t-66.5 -91.5t-76.5 -50t-64.5 -17.5q-32 0 -51.5 16t-21.5 41h-2q-35 -58 -108 -58q-64 0 -110.5 50.5t-46.5 120.5q0 100 61.5 177.5t156.5 77.5q36 0 68.5 -17t48.5 -53l16 54h82zM291 319q0 -40 21.5 -64.5t56.5 -24.5
q51 0 87 48t36 103q0 36 -22.5 60.5t-54.5 24.5q-52 0 -88 -46.5t-36 -100.5z" />
    <glyph glyph-name="A" unicode="A" horiz-adv-x="685" 
d="M342 538l-93 -262h185l-90 262h-2zM-7 0l271 714h161l267 -714h-163l-54 159h-267l-56 -159h-159z" />
    <glyph glyph-name="B" unicode="B" horiz-adv-x="704" 
d="M226 592v-167h159q96 0 96 85q0 82 -108 82h-147zM69 0v714h336q228 0 228 -177q0 -101 -97 -149q65 -18 98 -65.5t33 -115.5q0 -102 -73 -154.5t-179 -52.5h-346zM226 318v-196h168q116 0 116 94q0 102 -113 102h-171z" />
    <glyph glyph-name="C" unicode="C" horiz-adv-x="741" 
d="M697 474h-152q-8 53 -53 89t-103 36q-67 0 -112 -36t-63.5 -89.5t-18.5 -119.5q0 -100 48 -169.5t146 -69.5q70 0 111.5 43t50.5 117h152q-12 -134 -97 -213t-217 -79q-161 0 -256 106t-95 265q0 163 95 270t256 107q121 0 207.5 -68.5t100.5 -188.5z" />
    <glyph glyph-name="D" unicode="D" horiz-adv-x="741" 
d="M226 582v-450h140q76 0 127 52t51 162q0 115 -47.5 175.5t-158.5 60.5h-112zM69 0v714h308q145 0 234.5 -91t89.5 -262q0 -162 -83 -261.5t-241 -99.5h-308z" />
    <glyph glyph-name="E" unicode="E" horiz-adv-x="648" 
d="M69 0v714h534v-132h-377v-153h346v-122h-346v-175h385v-132h-542z" />
    <glyph glyph-name="F" unicode="F" 
d="M69 0v714h502v-132h-345v-165h299v-122h-299v-295h-157z" />
    <glyph glyph-name="G" unicode="G" horiz-adv-x="759" 
d="M601 0l-16 81q-76 -98 -196 -98q-161 0 -256 106t-95 265q0 163 95 270t256 107q116 0 202.5 -67.5t98.5 -184.5h-150q-14 59 -54 89.5t-97 30.5q-67 0 -112 -36t-63.5 -89.5t-18.5 -119.5q0 -100 48 -169.5t146 -69.5q156 0 170 154h-158v117h300v-386h-100z" />
    <glyph glyph-name="H" unicode="H" horiz-adv-x="741" 
d="M69 0v714h157v-274h289v274h157v-714h-157v308h-289v-308h-157z" />
    <glyph glyph-name="I" unicode="I" horiz-adv-x="295" 
d="M69 0v714h157v-714h-157z" />
    <glyph glyph-name="J" unicode="J" horiz-adv-x="556" 
d="M487 714v-489q0 -242 -238 -242q-98 0 -166.5 55.5t-68.5 165.5v62h142v-32q0 -58 19.5 -88.5t71.5 -30.5q29 0 47.5 10t25.5 30.5t8.5 35.5t1.5 41v482h157z" />
    <glyph glyph-name="K" unicode="K" horiz-adv-x="722" 
d="M69 0v714h157v-296l279 296h196l-279 -282l306 -432h-197l-215 321l-90 -91v-230h-157z" />
    <glyph glyph-name="L" unicode="L" 
d="M69 0v714h157v-582h348v-132h-505z" />
    <glyph glyph-name="M" unicode="M" horiz-adv-x="907" 
d="M69 0v714h221l167 -491h2l158 491h221v-714h-147v506h-2l-175 -506h-121l-175 501h-2v-501h-147z" />
    <glyph glyph-name="N" unicode="N" horiz-adv-x="741" 
d="M69 0v714h156l298 -479h2v479h147v-714h-157l-297 478h-2v-478h-147z" />
    <glyph glyph-name="O" unicode="O" horiz-adv-x="778" 
d="M195 354q0 -100 48 -169.5t146 -69.5t146 69.5t48 169.5q0 66 -18.5 119.5t-63.5 89.5t-112 36t-112 -36t-63.5 -89.5t-18.5 -119.5zM38 354q0 163 95 270t256 107t256 -107t95 -270q0 -159 -95 -265t-256 -106t-256 106t-95 265z" />
    <glyph glyph-name="P" unicode="P" horiz-adv-x="667" 
d="M226 592v-214h122q64 0 101 22.5t37 84.5t-37 84.5t-101 22.5h-122zM69 0v714h322q125 0 186 -66t61 -163t-61 -163t-186 -66h-165v-256h-157z" />
    <glyph glyph-name="Q" unicode="Q" horiz-adv-x="778" 
d="M385 186l73 78l81 -74q44 59 44 164q0 66 -18.5 119.5t-63.5 89.5t-112 36t-112 -36t-63.5 -89.5t-18.5 -119.5q0 -100 48 -169.5t146 -69.5q53 0 63 10zM736 10l-73 -77l-101 92q-73 -42 -173 -42q-161 0 -256 106t-95 265q0 163 95 270t256 107t256 -107t95 -270
q0 -158 -93 -263z" />
    <glyph glyph-name="R" unicode="R" horiz-adv-x="722" 
d="M226 592v-201h172q108 0 108 102q0 99 -108 99h-172zM69 0v714h385q94 0 151.5 -57t57.5 -140q0 -134 -113 -179v-2q94 -26 104 -167q0 -2 2 -37.5t3.5 -51.5t8 -41t16.5 -39h-157q-8 20 -12 48.5t-7 66.5t-6 56q-8 58 -34.5 83t-84.5 25h-157v-279h-157z" />
    <glyph glyph-name="S" unicode="S" horiz-adv-x="649" 
d="M24 237h152q0 -67 44.5 -99.5t113.5 -32.5q33 0 61.5 6.5t53 27.5t24.5 55q0 19 -9.5 34t-21.5 24.5t-36.5 19t-42.5 14t-51 13t-51 13.5q-45 11 -78.5 24.5t-66.5 36.5t-50.5 59t-17.5 83q0 103 80 159.5t187 56.5q79 0 141 -22t103.5 -75.5t41.5 -132.5h-152
q-6 108 -141 108q-43 0 -75.5 -20t-32.5 -61q0 -39 35 -55.5t178 -52.5q212 -48 212 -208q0 -102 -77.5 -165.5t-219.5 -63.5q-129 0 -217.5 65t-86.5 189z" />
    <glyph glyph-name="T" unicode="T" horiz-adv-x="611" 
d="M227 0v582h-214v132h585v-132h-214v-582h-157z" />
    <glyph glyph-name="U" unicode="U" horiz-adv-x="741" 
d="M675 714v-444q0 -142 -79.5 -214.5t-225.5 -72.5q-147 0 -225.5 71.5t-78.5 215.5v444h157v-444q0 -71 30.5 -113t116.5 -42q82 0 115 36.5t33 118.5v444h157z" />
    <glyph glyph-name="V" unicode="V" horiz-adv-x="630" 
d="M638 714l-237 -714h-177l-232 714h162l159 -502h2l161 502h162z" />
    <glyph glyph-name="W" unicode="W" horiz-adv-x="944" 
d="M941 714l-192 -714h-156l-121 486h-2l-119 -486h-159l-189 714h157l113 -486h2l124 486h147l122 -492h2l117 492h154z" />
    <glyph glyph-name="X" unicode="X" horiz-adv-x="667" 
d="M-6 0l250 374l-230 340h182l140 -228l145 228h172l-229 -341l249 -373h-187l-156 247l-159 -247h-177z" />
    <glyph glyph-name="Y" unicode="Y" horiz-adv-x="667" 
d="M254 0v278l-263 436h177l167 -282l166 282h175l-265 -440v-274h-157z" />
    <glyph glyph-name="Z" unicode="Z" horiz-adv-x="648" 
d="M23 0v124l383 458h-353v132h562v-124l-383 -458h393v-132h-602z" />
    <glyph glyph-name="bracketleft" unicode="[" horiz-adv-x="333" 
d="M68 -182v913h264v-112h-122v-689h122v-112h-264z" />
    <glyph glyph-name="backslash" unicode="\" horiz-adv-x="371" 
d="M103 731l279 -748h-114l-279 748h114z" />
    <glyph glyph-name="bracketright" unicode="]" horiz-adv-x="333" 
d="M265 731v-913h-264v112h122v689h-122v112h264z" />
    <glyph glyph-name="asciicircum" unicode="^" horiz-adv-x="600" 
d="M61 315l172 385h134l172 -385h-117l-122 275l-122 -275h-117z" />
    <glyph glyph-name="underscore" unicode="_" horiz-adv-x="500" 
d="M0 -125v50h500v-50h-500z" />
    <glyph glyph-name="grave" unicode="`" horiz-adv-x="259" 
d="M106 589l-154 142h157l96 -142h-99z" />
    <glyph glyph-name="a" unicode="a" horiz-adv-x="574" 
d="M190 358h-142q6 91 75 132t168 41q227 0 227 -147v-269q0 -86 18 -115h-144q-9 28 -10 50q-61 -64 -174 -64q-78 0 -127 39.5t-49 115.5q0 55 26.5 90t65 47t83.5 20t83 10.5t62.5 16.5t23.5 41q0 41 -24 55.5t-68 14.5q-87 0 -94 -78zM376 200v53q-8 -7 -23 -12.5
t-27.5 -7.5t-34.5 -5t-33 -5q-84 -15 -84 -76q0 -66 87 -66q115 0 115 119z" />
    <glyph glyph-name="b" unicode="b" horiz-adv-x="611" 
d="M433 258q0 71 -30.5 118.5t-90.5 47.5t-90.5 -47.5t-30.5 -118.5q0 -70 31 -117.5t90 -47.5t90 47.5t31 117.5zM54 0v714h142v-260h2q51 77 163 77q86 0 150 -70t64 -202t-64 -202.5t-150 -70.5q-126 0 -170 80h-2v-66h-135z" />
    <glyph glyph-name="c" unicode="c" horiz-adv-x="574" 
d="M545 335h-139q-14 89 -105 89q-62 0 -91.5 -50.5t-29.5 -117.5q0 -66 28.5 -114.5t89.5 -48.5q98 0 113 105h137q-14 -102 -79.5 -157t-169.5 -55q-116 0 -188.5 74t-72.5 191q0 124 70.5 202t193.5 78q98 0 167.5 -51t75.5 -145z" />
    <glyph glyph-name="d" unicode="d" horiz-adv-x="611" 
d="M421 260q0 71 -29 117.5t-93 46.5q-65 0 -95 -47t-30 -118q0 -68 31.5 -117t93.5 -49q65 0 93.5 47.5t28.5 119.5zM423 0v66h-2q-47 -80 -157 -80q-111 0 -171.5 80.5t-60.5 196.5q0 112 60.5 190t168.5 78q47 0 88.5 -20t64.5 -57h2v260h142v-714h-135z" />
    <glyph glyph-name="e" unicode="e" horiz-adv-x="574" 
d="M171 314h231q-10 56 -36.5 83t-76.5 27q-61 0 -88 -34.5t-30 -75.5zM544 224h-373q6 -131 127 -131q41 0 73 20.5t39 46.5h125q-57 -174 -242 -174q-121 0 -192.5 75.5t-71.5 196.5q0 118 73.5 195.5t190.5 77.5q126 0 193 -90t58 -217z" />
    <glyph glyph-name="f" unicode="f" horiz-adv-x="333" 
d="M85 0v422h-85v95h85v40q0 71 44.5 114t128.5 43q14 0 41 -2t34 -2v-106q-25 3 -52 3q-29 0 -41.5 -13.5t-12.5 -45.5v-31h98v-95h-98v-422h-142z" />
    <glyph glyph-name="g" unicode="g" horiz-adv-x="611" 
d="M295 122q58 0 89.5 41.5t31.5 101.5q0 70 -28.5 114.5t-92.5 44.5q-57 0 -86 -42t-29 -105q0 -41 10 -74t37 -57t68 -24zM551 517v-484q0 -30 -5 -57t-21.5 -60t-44.5 -56.5t-78.5 -39.5t-118.5 -16q-86 0 -154 42.5t-74 123.5h141q17 -71 106 -71q57 0 86 34.5t28 93.5
v68h-2q-22 -40 -63.5 -60t-91.5 -20q-111 0 -166 72.5t-55 187.5q0 106 59.5 181t162.5 75q106 0 154 -83h2v69h135z" />
    <glyph glyph-name="h" unicode="h" 
d="M54 0v714h142v-269h3q26 42 67 64t84 22q107 0 148 -54t41 -159v-318h-142v292q0 65 -21 96t-70 31q-58 0 -84 -35t-26 -113v-271h-142z" />
    <glyph glyph-name="i" unicode="i" horiz-adv-x="258" 
d="M200 714v-117h-142v117h142zM58 0v517h142v-517h-142z" />
    <glyph glyph-name="j" unicode="j" horiz-adv-x="278" 
d="M209 714v-117h-142v117h142zM-19 -178v117q11 -4 31 -4q55 0 55 46v536h142v-543q0 -83 -39 -119.5t-143 -36.5q-26 0 -46 4z" />
    <glyph glyph-name="k" unicode="k" horiz-adv-x="574" 
d="M67 0v714h142v-383l179 186h168l-195 -190l217 -327h-172l-142 231l-55 -53v-178h-142z" />
    <glyph glyph-name="l" unicode="l" horiz-adv-x="258" 
d="M58 0v714h142v-714h-142z" />
    <glyph glyph-name="m" unicode="m" horiz-adv-x="906" 
d="M58 0v517h134v-70h2q59 84 158 84q113 0 151 -86q59 86 156 86q88 0 138.5 -44.5t50.5 -140.5v-346h-142v293q0 24 -1 40t-6 34t-14 28t-25.5 17t-40.5 7q-95 0 -95 -131v-288h-142v290v7q0 24 -0.5 36t-5 31.5t-13 29t-25.5 17.5t-42 8q-13 0 -27 -5t-31 -16.5
t-27.5 -37t-10.5 -60.5v-300h-142z" />
    <glyph glyph-name="n" unicode="n" 
d="M54 0v517h135v-72h3q26 42 68.5 64t89.5 22q107 0 148 -54t41 -159v-318h-142v292q0 65 -21 96t-70 31q-58 0 -84 -35t-26 -113v-271h-142z" />
    <glyph glyph-name="o" unicode="o" horiz-adv-x="611" 
d="M180 258q0 -71 29.5 -118t95.5 -47q67 0 96.5 47t29.5 118t-29.5 118.5t-96.5 47.5q-66 0 -95.5 -47.5t-29.5 -118.5zM38 258q0 124 73 198.5t194 74.5q122 0 195 -74.5t73 -198.5q0 -123 -73 -197.5t-195 -74.5q-121 0 -194 74.5t-73 197.5z" />
    <glyph glyph-name="p" unicode="p" horiz-adv-x="611" 
d="M315 93q65 0 94 46.5t29 117.5q0 70 -30.5 118.5t-93.5 48.5q-65 0 -94 -48t-29 -119q0 -70 30 -117t94 -47zM54 -182v699h135v-66h2q50 80 154 80q115 0 175 -79.5t60 -198.5q0 -111 -59.5 -189t-167.5 -78q-101 0 -155 78h-2v-246h-142z" />
    <glyph glyph-name="q" unicode="q" horiz-adv-x="611" 
d="M174 258q0 -71 29 -118t94 -47q64 0 94 46t30 117q0 69 -29.5 118.5t-91.5 49.5q-65 0 -95.5 -47.5t-30.5 -118.5zM558 517v-699h-142v247h-2q-23 -40 -67.5 -59.5t-95.5 -19.5q-38 0 -74.5 14.5t-70 44.5t-54 84.5t-20.5 125.5q0 115 60.5 195.5t171.5 80.5
q112 0 157 -80h2v66h135z" />
    <glyph glyph-name="r" unicode="r" horiz-adv-x="389" 
d="M54 0v517h135v-96h2q20 49 66 79.5t99 30.5q14 0 31 -5v-132q-22 5 -51 5q-140 0 -140 -166v-233h-142z" />
    <glyph glyph-name="s" unicode="s" horiz-adv-x="537" 
d="M29 168h135q0 -43 32 -65t77 -22q36 0 64.5 16t28.5 50q0 30 -37 46t-124 34q-37 8 -61.5 17t-50.5 24.5t-39 39.5t-13 57q0 47 19 81t52.5 52t71 25.5t82.5 7.5q95 0 157.5 -38.5t70.5 -126.5h-135q-5 70 -97 70q-79 0 -79 -48q0 -11 4.5 -19.5t14 -15t19.5 -11t26.5 -9
t29 -7.5t33.5 -7.5t34 -7.5q77 -18 120.5 -49t43.5 -96q0 -94 -68 -137t-168 -43q-65 0 -116 16t-88 58.5t-39 107.5z" />
    <glyph glyph-name="t" unicode="t" horiz-adv-x="352" 
d="M234 672v-155h104v-95h-104v-256q0 -36 12 -48t48 -12q27 0 44 4v-111q-30 -5 -83 -5q-36 0 -63 5t-51 17.5t-36.5 37.5t-12.5 63v305h-86v95h86v155h142z" />
    <glyph glyph-name="u" unicode="u" 
d="M539 517v-517h-135v72h-3q-26 -42 -68.5 -64t-89.5 -22q-107 0 -148 54t-41 159v318h142v-292q0 -65 21 -96t70 -31q58 0 84 35t26 113v271h142z" />
    <glyph glyph-name="v" unicode="v" horiz-adv-x="520" 
d="M515 517l-175 -517h-158l-177 517h149l109 -353h2l109 353h141z" />
    <glyph glyph-name="w" unicode="w" horiz-adv-x="814" 
d="M808 517l-163 -517h-146l-92 347h-2l-88 -347h-147l-164 517h150l95 -351h2l86 351h138l88 -350h2l95 350h146z" />
    <glyph glyph-name="x" unicode="x" horiz-adv-x="537" 
d="M0 0l186 272l-170 245h162l91 -135l90 135h157l-170 -242l191 -275h-162l-108 163l-108 -163h-159z" />
    <glyph glyph-name="y" unicode="y" horiz-adv-x="519" 
d="M525 517l-216 -582q-23 -63 -64.5 -90t-113.5 -27q-39 0 -87 5v117q54 -6 83 -5q27 3 41 21.5t14 43.5q0 17 -6 32l-182 485h152l117 -354h2l113 354h147z" />
    <glyph glyph-name="z" unicode="z" horiz-adv-x="519" 
d="M22 0v107l269 303h-249v107h436v-107l-269 -303h288v-107h-475z" />
    <glyph glyph-name="braceleft" unicode="{" horiz-adv-x="333" 
d="M333 731v-112h-54q-54 0 -54 -73v-152q0 -34 -11 -58.5t-28.5 -36.5t-31.5 -17t-28 -6v-3q33 -3 66 -29t33 -81v-160q0 -73 54 -73h54v-112h-127q-41 0 -82 36.5t-41 98.5v195q0 41 -30.5 62t-61.5 21v87q32 0 62 22.5t30 67.5v188q0 62 41 98.5t82 36.5h127z" />
    <glyph glyph-name="bar" unicode="|" horiz-adv-x="223" 
d="M58 -214v1000h107v-1000h-107z" />
    <glyph glyph-name="braceright" unicode="}" horiz-adv-x="333" 
d="M0 -182v112h54q54 0 54 73v160q0 55 32.5 81t66.5 29v3q-15 1 -29 6t-31.5 17t-28 36.5t-10.5 58.5v152q0 73 -54 73h-54v112h127q41 0 82 -36.5t41 -98.5v-188q0 -45 30 -67.5t62 -22.5v-87q-31 0 -61.5 -21t-30.5 -62v-195q0 -62 -41 -98.5t-82 -36.5h-127z" />
    <glyph glyph-name="asciitilde" unicode="~" horiz-adv-x="600" 
d="M493 344l40 -93q-27 -41 -55 -63.5t-70 -22.5q-45 0 -102 33q-59 35 -115 35q-51 0 -84 -72l-40 93q42 86 125 86q38 0 111 -32q7 -3 21.5 -9.5t23 -10t20 -8t20.5 -6.5t17 -2q19 0 37 13t25.5 23t25.5 36z" />
    <glyph glyph-name="Euro" horiz-adv-x="556" 
d="M576 672l-61 -125q-71 45 -131 45q-105 0 -140 -137h244l-31 -72h-224l-1 -42h213l-31 -72h-174q32 -158 148 -158q74 0 154 63l-1 -151q-67 -40 -154 -40q-127 0 -203 82q-70 73 -91 204h-77l31 72h40v26q0 13 1 16h-73l31 72h51q24 120 99 191q79 76 198 76
q84 0 182 -50z" />
    <glyph glyph-name="Euro" unicode="&#x20ac;" horiz-adv-x="556" 
d="M576 672l-61 -125q-71 45 -131 45q-105 0 -140 -137h244l-31 -72h-224l-1 -42h213l-31 -72h-174q32 -158 148 -158q74 0 154 63l-1 -151q-67 -40 -154 -40q-127 0 -203 82q-70 73 -91 204h-77l31 72h40v26q0 13 1 16h-73l31 72h51q24 120 99 191q79 76 198 76
q84 0 182 -50z" />
    <glyph glyph-name="uni00A0" unicode="&#xa0;" horiz-adv-x="278" 
 />
    <glyph glyph-name="exclamdown" unicode="&#xa1;" horiz-adv-x="278" 
d="M65 -183v192l39 308h71l38 -308v-192h-148zM218 531v-154h-157v154h157z" />
    <glyph glyph-name="cent" unicode="&#xa2;" horiz-adv-x="556" 
d="M260 -115v101q-106 6 -172.5 81t-66.5 183q0 117 63 194t176 87v85h59v-85q86 0 153 -55t71 -142h-139q-3 36 -27 61.5t-58 28.5v-331q36 6 61.5 38.5t25.5 71.5h139q-8 -94 -70 -151.5t-156 -65.5v-101h-59zM260 93v330q-50 -13 -73.5 -57t-23.5 -102q0 -140 97 -171z
" />
    <glyph glyph-name="sterling" unicode="&#xa3;" horiz-adv-x="556" 
d="M88 -17l-62 93q48 30 80.5 73t32.5 93q0 27 -19 67h-99v85h64q-45 56 -45 138q0 85 67.5 142t188.5 57q115 0 179 -65t64 -185h-135q-1 19 -2.5 29.5t-8 33t-17 35.5t-31.5 24t-50 11q-44 0 -71 -25t-27 -67q0 -19 1.5 -31.5t11 -37.5t28.5 -59h133v-85h-105q8 -23 8 -62
q0 -75 -82 -140l2 -2q37 23 68 23q20 0 79 -11q46 -12 78 -12q48 0 88 43l60 -101q-65 -64 -156 -64q-63 0 -109 18q-53 20 -99 20q-67 0 -115 -38z" />
    <glyph glyph-name="currency" unicode="&#xa4;" horiz-adv-x="556" 
d="M280 491q-60 0 -93.5 -41.5t-33.5 -100.5q0 -58 33.5 -99t92.5 -41t90.5 41.5t31.5 100.5q0 57 -32 98.5t-89 41.5zM20 149l57 58q-48 56 -48 142q0 96 48 144l-57 58l57 57l57 -56q54 46 146 46q85 0 137 -45l58 57l61 -61l-56 -55q45 -50 45 -143q0 -91 -46 -146
l55 -56l-55 -55l-57 58q-52 -50 -143 -50q-93 0 -147 49l-56 -58z" />
    <glyph glyph-name="yen" unicode="&#xa5;" horiz-adv-x="556" 
d="M359 0h-152v138h-157v95h157v46l-14 29h-143v95h95l-154 311h163l132 -311l129 311h162l-155 -311h95v-95h-143l-15 -29v-46h158v-95h-158v-138z" />
    <glyph glyph-name="brokenbar" unicode="&#xa6;" horiz-adv-x="223" 
d="M165 661v-250h-107v250h107zM58 -89v250h107v-250h-107z" />
    <glyph glyph-name="section" unicode="&#xa7;" horiz-adv-x="556" 
d="M494 538h-124q0 38 -23 62t-62 24q-29 0 -52.5 -18t-23.5 -46q1 -30 36 -56t84.5 -48t99 -47t83.5 -66t34 -93q0 -50 -28 -89.5t-76 -56.5q55 -41 55 -118q0 -79 -65 -123.5t-148 -44.5q-102 0 -163.5 48t-61.5 146h124q4 -87 98 -87q32 0 53 17t21 49q1 32 -33.5 59
t-85.5 49t-102 47.5t-87.5 67.5t-36.5 97q0 108 107 146q-43 48 -43 101q0 80 63.5 126.5t145.5 46.5q91 0 151 -51.5t60 -141.5zM377 287l-165 93q-21 11 -27 10q-21 -2 -36 -23t-15 -44q0 -32 32 -49l180 -98q16 -7 30 -7q19 0 32.5 18.5t13.5 36.5q0 39 -45 63z" />
    <glyph glyph-name="dieresis" unicode="&#xa8;" horiz-adv-x="259" 
d="M-41 598v117h135v-117h-135zM165 598v117h135v-117h-135z" />
    <glyph glyph-name="copyright" unicode="&#xa9;" horiz-adv-x="800" 
d="M515 295h81q-12 -73 -62.5 -115.5t-119.5 -42.5q-96 0 -155.5 63.5t-59.5 158.5q0 98 57.5 161t155.5 63q71 0 121.5 -40.5t59.5 -114.5h-78q-8 35 -36 55t-67 20q-56 0 -86.5 -39t-30.5 -103q0 -60 33 -102t86 -42q42 0 69 21t32 57zM118 357q0 -127 81.5 -210.5
t200.5 -83.5q118 0 200 83.5t82 210.5t-82 210.5t-200 83.5q-119 0 -200.5 -83.5t-81.5 -210.5zM16 357q0 110 54 197t141 132t189 45t189 -45t141 -132t54 -197q0 -165 -113 -269.5t-271 -104.5t-271 104.5t-113 269.5z" />
    <glyph glyph-name="ordfeminine" unicode="&#xaa;" horiz-adv-x="344" 
d="M122 605h-102q16 109 156 109q150 0 150 -89v-166q0 -53 12 -75h-101q-6 20 -7 31q-37 -40 -108 -40q-50 0 -81 24.5t-31 75.5q0 35 18.5 56.5t40 28.5t55.5 12q11 2 33 4t31.5 3.5t21.5 5t16.5 9.5t4.5 16q0 24 -15.5 31.5t-44.5 7.5q-19 0 -33 -11t-16 -33zM230 515v20
q-7 -6 -17.5 -9t-28.5 -5.5t-21 -3.5q-25 -6 -38 -14.5t-13 -25.5q0 -37 45 -37q73 0 73 75z" />
    <glyph glyph-name="guillemotleft" unicode="&#xab;" horiz-adv-x="444" 
d="M199 80l-157 125v135l157 123v-120l-90 -71l90 -72v-120zM402 80l-157 125v135l157 123v-120l-90 -71l90 -72v-120z" />
    <glyph glyph-name="logicalnot" unicode="&#xac;" horiz-adv-x="600" 
d="M552 406v-307h-107v200h-397v107h504z" />
    <glyph glyph-name="uni00AD" unicode="&#xad;" horiz-adv-x="407" 
d="M53 212v122h301v-122h-301z" />
    <glyph glyph-name="registered" unicode="&#xae;" horiz-adv-x="800" 
d="M334 503v-110h74q41 0 61.5 11.5t20.5 46.5q0 52 -86 52h-70zM251 149v419h158q82 0 123 -29t41 -95q0 -103 -110 -112l112 -183h-87l-102 179h-52v-179h-83zM118 358q0 -127 81.5 -211t200.5 -84q118 0 200 84t82 211q0 126 -82 209.5t-200 83.5q-119 0 -200.5 -83.5
t-81.5 -209.5zM16 358q0 165 113 269t271 104t271 -104t113 -269q0 -166 -113 -270.5t-271 -104.5t-271 104.5t-113 270.5z" />
    <glyph glyph-name="macron" unicode="&#xaf;" horiz-adv-x="259" 
d="M-57 619v75h373v-75h-373z" />
    <glyph glyph-name="degree" unicode="&#xb0;" horiz-adv-x="400" 
d="M117 566q0 -36 25 -62t58 -26t58 26t25 62t-25 62t-58 26t-58 -26t-25 -62zM52 566q0 62 43 105t105 43t105 -43t43 -105t-43 -105t-105 -43t-105 43t-43 105z" />
    <glyph glyph-name="plusminus" unicode="&#xb1;" horiz-adv-x="600" 
d="M48 0v107h505v-107h-505zM354 506v-131h199v-107h-199v-131h-107v131h-199v107h199v131h107z" />
    <glyph glyph-name="twosuperior" unicode="&#xb2;" horiz-adv-x="392" 
d="M130 540h-102q-1 80 45 127t136 47q67 0 111.5 -35.5t44.5 -99.5q0 -44 -24.5 -77t-56 -50t-71.5 -43.5t-61 -55.5h209v-80h-334q0 38 10 67.5t32.5 53.5t42 38t55.5 37q6 4 24.5 15.5t27 18t21 18t18 24t5.5 27.5q0 27 -17 44.5t-44 17.5q-38 0 -56.5 -29.5t-15.5 -64.5
z" />
    <glyph glyph-name="threesuperior" unicode="&#xb3;" horiz-adv-x="392" 
d="M164 464v70q21 0 31.5 1t28.5 4.5t26.5 14t8.5 27.5q0 24 -18.5 38.5t-43.5 14.5q-31 0 -49.5 -20.5t-17.5 -51.5h-96q2 70 45 111t117 41q65 0 112 -32t47 -91q0 -31 -17 -54.5t-49 -31.5v-2q38 -7 59.5 -32.5t21.5 -61.5q0 -69 -49.5 -107t-123.5 -38q-83 0 -130 41.5
t-45 118.5h96q2 -35 21.5 -57.5t55.5 -22.5q31 0 52 18t21 45q0 20 -9 32.5t-27.5 17.5t-31.5 6t-36 1z" />
    <glyph glyph-name="acute" unicode="&#xb4;" horiz-adv-x="259" 
d="M307 731l-154 -142h-99l96 142h157z" />
    <glyph glyph-name="mu" unicode="&#xb5;" 
d="M539 517v-517h-135v72h-3q-26 -40 -64 -63t-66 -23q-53 0 -75 24v-192h-142v699h142v-292q0 -65 21 -96t70 -31q58 0 84 35t26 113v271h142z" />
    <glyph glyph-name="paragraph" unicode="&#xb6;" horiz-adv-x="620" 
d="M221 -166v523q-104 0 -161.5 47t-57.5 128q0 182 240 182h293v-880h-102v800h-110v-800h-102z" />
    <glyph glyph-name="periodcentered" unicode="&#xb7;" horiz-adv-x="278" 
d="M55 287q0 35 25.5 60t59.5 25t59 -25t25 -60q0 -33 -25 -58.5t-58 -25.5q-35 0 -60.5 25t-25.5 59z" />
    <glyph glyph-name="cedilla" unicode="&#xb8;" horiz-adv-x="259" 
d="M12 -195l21 48q42 -18 84 -18q40 0 40 34q0 32 -40 32q-22 0 -40 -7l-21 24l59 82h49l-39 -52l1 -2q17 7 35 7q37 0 64.5 -18t27.5 -52q0 -54 -33.5 -77t-83.5 -23q-64 0 -124 22z" />
    <glyph glyph-name="onesuperior" unicode="&#xb9;" horiz-adv-x="392" 
d="M289 705v-432h-102v274h-110v75q52 -2 87 18t41 65h84z" />
    <glyph glyph-name="ordmasculine" unicode="&#xba;" horiz-adv-x="367" 
d="M119 544q0 -37 16.5 -65.5t47.5 -28.5q32 0 48.5 28.5t16.5 65.5q0 38 -16.5 66.5t-48.5 28.5q-31 0 -47.5 -28.5t-16.5 -66.5zM12 544q0 78 46.5 124t124.5 46t125 -46t47 -124t-46.5 -123.5t-125.5 -45.5q-78 0 -124.5 45.5t-46.5 123.5z" />
    <glyph glyph-name="guillemotright" unicode="&#xbb;" horiz-adv-x="444" 
d="M42 463l157 -123v-135l-157 -125v120l90 72l-90 71v120zM245 463l157 -123v-135l-157 -125v120l90 72l-90 71v120z" />
    <glyph glyph-name="onequarter" unicode="&#xbc;" horiz-adv-x="892" 
d="M689 169v144h-2l-114 -144h116zM689 0v89h-192v93l188 238h100v-251h57v-80h-57v-89h-96zM236 705v-432h-102v274h-110v75q52 -2 87 18t41 65h84zM152 -22l414 744h85l-412 -744h-87z" />
    <glyph glyph-name="onehalf" unicode="&#xbd;" horiz-adv-x="889" 
d="M611 267h-102q-1 80 45 127t136 47q67 0 111.5 -35.5t44.5 -99.5q0 -44 -24.5 -77t-56 -50t-71.5 -43.5t-61 -55.5h209v-80h-334q0 38 10 67.5t32.5 53.5t42 38t55.5 37q6 4 24.5 15.5t27 18t21 18t18 24t5.5 27.5q0 27 -17 44.5t-44 17.5q-38 0 -56.5 -29.5t-15.5 -64.5
zM236 705v-432h-102v274h-110v75q52 -2 87 18t41 65h84zM152 -22l414 744h85l-412 -744h-87z" />
    <glyph glyph-name="threequarters" unicode="&#xbe;" horiz-adv-x="889" 
d="M709 169v144h-2l-114 -144h116zM709 0v89h-192v93l188 238h100v-251h57v-80h-57v-89h-96zM181 464v70q21 0 31.5 1t28.5 4.5t26.5 14t8.5 27.5q0 24 -18.5 38.5t-43.5 14.5q-31 0 -49.5 -20.5t-17.5 -51.5h-96q2 70 45 111t117 41q65 0 112 -32t47 -91q0 -31 -17 -54.5
t-49 -31.5v-2q38 -7 59.5 -32.5t21.5 -61.5q0 -69 -49.5 -107t-123.5 -38q-83 0 -130 41.5t-45 118.5h96q2 -35 21.5 -57.5t55.5 -22.5q31 0 52 18t21 45q0 20 -9 32.5t-27.5 17.5t-31.5 6t-36 1zM239 -22l414 744h85l-412 -744h-87z" />
    <glyph glyph-name="questiondown" unicode="&#xbf;" horiz-adv-x="556" 
d="M363 531v-154h-157v154h157zM375 51h147q-2 -109 -68 -178t-173 -69q-67 0 -117.5 19t-78 49.5t-40.5 62t-13 62.5q0 53 17 90.5t42.5 58.5t51 38.5t46 41.5t25.5 57v38h135v-45q-4 -48 -22 -83t-41 -54.5t-45.5 -36.5t-37.5 -39t-14 -52q0 -90 85 -90q49 0 75 36.5
t26 93.5z" />
    <glyph glyph-name="Agrave" unicode="&#xc0;" horiz-adv-x="685" 
d="M342 538l-93 -262h185l-90 262h-2zM-7 0l271 714h161l267 -714h-163l-54 159h-267l-56 -159h-159zM314 779l-154 142h157l96 -142h-99z" />
    <glyph glyph-name="Aacute" unicode="&#xc1;" horiz-adv-x="685" 
d="M342 538l-93 -262h185l-90 262h-2zM-7 0l271 714h161l267 -714h-163l-54 159h-267l-56 -159h-159zM526 921l-154 -142h-99l96 142h157z" />
    <glyph glyph-name="Acircumflex" unicode="&#xc2;" horiz-adv-x="685" 
d="M342 538l-93 -262h185l-90 262h-2zM-7 0l271 714h161l267 -714h-163l-54 159h-267l-56 -159h-159zM171 779l111 142h130l110 -142h-117l-62 81l-64 -81h-108z" />
    <glyph glyph-name="Atilde" unicode="&#xc3;" horiz-adv-x="685" 
d="M342 538l-93 -262h185l-90 262h-2zM-7 0l271 714h161l267 -714h-163l-54 159h-267l-56 -159h-159zM459 911h69q-11 -53 -34 -82t-78 -32q-35 0 -81 17q-51 17 -68 17q-33 0 -45 -42h-61q6 48 37 84.5t80 37.5q29 0 72 -18q49 -17 65 -17q34 0 44 35z" />
    <glyph glyph-name="Adieresis" unicode="&#xc4;" horiz-adv-x="685" 
d="M342 538l-93 -262h185l-90 262h-2zM-7 0l271 714h161l267 -714h-163l-54 159h-267l-56 -159h-159zM175 788v117h135v-117h-135zM381 788v117h135v-117h-135z" />
    <glyph glyph-name="Aring" unicode="&#xc5;" horiz-adv-x="685" 
d="M342 538l-93 -262h185l-90 262h-2zM-7 0l271 714h161l267 -714h-163l-54 159h-267l-56 -159h-159zM222 866q0 51 35.5 86.5t86.5 35.5t87 -35.5t36 -86.5t-36 -86t-87 -35t-86.5 35t-35.5 86zM281 866q0 -30 17 -49t46 -19t46.5 19t17.5 49t-17.5 49t-46.5 19t-46 -19
t-17 -49z" />
    <glyph glyph-name="AE" unicode="&#xc6;" horiz-adv-x="981" 
d="M-11 0l341 714h606v-132h-332v-153h312v-122h-312v-175h340v-132h-492v159h-224l-72 -159h-167zM418 582l-138 -306h172v306h-34z" />
    <glyph glyph-name="Ccedilla" unicode="&#xc7;" horiz-adv-x="741" 
d="M251 -195l21 48q42 -18 84 -18q40 0 40 34q0 32 -40 32q-22 0 -40 -7l-21 24l48 67q-55 6 -102 27q-96 42 -149.5 133t-53.5 209q0 163 95 270t256 107q121 0 207.5 -68.5t100.5 -188.5h-152q-8 53 -53 89t-103 36q-67 0 -112 -36t-63.5 -89.5t-18.5 -119.5
q0 -100 48 -169.5t146 -69.5q70 0 111.5 43t50.5 117h152q-12 -134 -97 -213t-216 -79l-26 -35l1 -2q17 7 35 7q37 0 64.5 -18t27.5 -52q0 -54 -33.5 -77t-83.5 -23q-64 0 -124 22z" />
    <glyph glyph-name="Egrave" unicode="&#xc8;" horiz-adv-x="648" 
d="M69 0v714h534v-132h-377v-153h346v-122h-346v-175h385v-132h-542zM317 779l-154 142h157l96 -142h-99z" />
    <glyph glyph-name="Eacute" unicode="&#xc9;" horiz-adv-x="648" 
d="M69 0v714h534v-132h-377v-153h346v-122h-346v-175h385v-132h-542zM532 921l-154 -142h-99l96 142h157z" />
    <glyph glyph-name="Ecircumflex" unicode="&#xca;" horiz-adv-x="648" 
d="M69 0v714h534v-132h-377v-153h346v-122h-346v-175h385v-132h-542zM157 779l111 142h130l110 -142h-117l-62 81l-64 -81h-108z" />
    <glyph glyph-name="Edieresis" unicode="&#xcb;" horiz-adv-x="648" 
d="M69 0v714h534v-132h-377v-153h346v-122h-346v-175h385v-132h-542zM169 788v117h135v-117h-135zM375 788v117h135v-117h-135z" />
    <glyph glyph-name="Igrave" unicode="&#xcc;" horiz-adv-x="295" 
d="M69 0v714h157v-714h-157zM127 779l-154 142h157l96 -142h-99z" />
    <glyph glyph-name="Iacute" unicode="&#xcd;" horiz-adv-x="295" 
d="M69 0v714h157v-714h-157zM321 921l-154 -142h-99l96 142h157z" />
    <glyph glyph-name="Icircumflex" unicode="&#xce;" horiz-adv-x="295" 
d="M69 0v714h157v-714h-157zM-28 779l111 142h130l110 -142h-117l-62 81l-64 -81h-108z" />
    <glyph glyph-name="Idieresis" unicode="&#xcf;" horiz-adv-x="295" 
d="M69 0v714h157v-714h-157zM-24 788v117h135v-117h-135zM182 788v117h135v-117h-135z" />
    <glyph glyph-name="Eth" unicode="&#xd0;" horiz-adv-x="741" 
d="M226 582v-155h160v-117h-160v-178h140q76 0 127 52t51 162q0 115 -47.5 175.5t-158.5 60.5h-112zM69 0v311h-66v116h66v287h308q145 0 234.5 -91t89.5 -262q0 -162 -83 -261.5t-241 -99.5h-308z" />
    <glyph glyph-name="Ntilde" unicode="&#xd1;" horiz-adv-x="741" 
d="M69 0v714h156l298 -479h2v479h147v-714h-157l-297 478h-2v-478h-147zM489 911h69q-11 -53 -34 -82t-78 -32q-35 0 -81 17q-51 17 -68 17q-33 0 -45 -42h-61q6 48 37 84.5t80 37.5q29 0 72 -18q49 -17 65 -17q34 0 44 35z" />
    <glyph glyph-name="Ograve" unicode="&#xd2;" horiz-adv-x="778" 
d="M195 354q0 -100 48 -169.5t146 -69.5t146 69.5t48 169.5q0 66 -18.5 119.5t-63.5 89.5t-112 36t-112 -36t-63.5 -89.5t-18.5 -119.5zM38 354q0 163 95 270t256 107t256 -107t95 -270q0 -159 -95 -265t-256 -106t-256 106t-95 265zM353 779l-154 142h157l96 -142h-99z" />
    <glyph glyph-name="Oacute" unicode="&#xd3;" horiz-adv-x="778" 
d="M195 354q0 -100 48 -169.5t146 -69.5t146 69.5t48 169.5q0 66 -18.5 119.5t-63.5 89.5t-112 36t-112 -36t-63.5 -89.5t-18.5 -119.5zM38 354q0 163 95 270t256 107t256 -107t95 -270q0 -159 -95 -265t-256 -106t-256 106t-95 265zM588 921l-154 -142h-99l96 142h157z" />
    <glyph glyph-name="Ocircumflex" unicode="&#xd4;" horiz-adv-x="778" 
d="M195 354q0 -100 48 -169.5t146 -69.5t146 69.5t48 169.5q0 66 -18.5 119.5t-63.5 89.5t-112 36t-112 -36t-63.5 -89.5t-18.5 -119.5zM38 354q0 163 95 270t256 107t256 -107t95 -270q0 -159 -95 -265t-256 -106t-256 106t-95 265zM220 779l111 142h130l110 -142h-117
l-62 81l-64 -81h-108z" />
    <glyph glyph-name="Otilde" unicode="&#xd5;" horiz-adv-x="778" 
d="M195 354q0 -100 48 -169.5t146 -69.5t146 69.5t48 169.5q0 66 -18.5 119.5t-63.5 89.5t-112 36t-112 -36t-63.5 -89.5t-18.5 -119.5zM38 354q0 163 95 270t256 107t256 -107t95 -270q0 -159 -95 -265t-256 -106t-256 106t-95 265zM504 911h69q-11 -53 -34 -82t-78 -32
q-35 0 -81 17q-51 17 -68 17q-33 0 -45 -42h-61q6 48 37 84.5t80 37.5q29 0 72 -18q49 -17 65 -17q34 0 44 35z" />
    <glyph glyph-name="Odieresis" unicode="&#xd6;" horiz-adv-x="778" 
d="M195 354q0 -100 48 -169.5t146 -69.5t146 69.5t48 169.5q0 66 -18.5 119.5t-63.5 89.5t-112 36t-112 -36t-63.5 -89.5t-18.5 -119.5zM38 354q0 163 95 270t256 107t256 -107t95 -270q0 -159 -95 -265t-256 -106t-256 106t-95 265zM216 788v117h135v-117h-135zM422 788
v117h135v-117h-135z" />
    <glyph glyph-name="multiply" unicode="&#xd7;" horiz-adv-x="600" 
d="M140 17l-76 76l161 160l-159 160l76 76l159 -160l160 160l76 -76l-161 -160l161 -160l-76 -76l-160 161z" />
    <glyph glyph-name="Oslash" unicode="&#xd8;" horiz-adv-x="778" 
d="M556 490l-295 -326q49 -49 128 -49q98 0 146 69.5t48 169.5q0 78 -27 136zM223 219l296 329q-51 51 -130 51q-67 0 -112 -36t-63.5 -89.5t-18.5 -119.5q0 -78 28 -135zM34 10l86 95q-82 100 -82 249q0 163 95 270t256 107q135 0 225 -77l80 89l50 -44l-84 -93
q80 -103 80 -252q0 -159 -95 -265t-256 -106q-132 0 -223 76l-83 -92z" />
    <glyph glyph-name="Ugrave" unicode="&#xd9;" horiz-adv-x="741" 
d="M675 714v-444q0 -142 -79.5 -214.5t-225.5 -72.5q-147 0 -225.5 71.5t-78.5 215.5v444h157v-444q0 -71 30.5 -113t116.5 -42q82 0 115 36.5t33 118.5v444h157zM327 779l-154 142h157l96 -142h-99z" />
    <glyph glyph-name="Uacute" unicode="&#xda;" horiz-adv-x="741" 
d="M675 714v-444q0 -142 -79.5 -214.5t-225.5 -72.5q-147 0 -225.5 71.5t-78.5 215.5v444h157v-444q0 -71 30.5 -113t116.5 -42q82 0 115 36.5t33 118.5v444h157zM568 921l-154 -142h-99l96 142h157z" />
    <glyph glyph-name="Ucircumflex" unicode="&#xdb;" horiz-adv-x="741" 
d="M675 714v-444q0 -142 -79.5 -214.5t-225.5 -72.5q-147 0 -225.5 71.5t-78.5 215.5v444h157v-444q0 -71 30.5 -113t116.5 -42q82 0 115 36.5t33 118.5v444h157zM197 779l111 142h130l110 -142h-117l-62 81l-64 -81h-108z" />
    <glyph glyph-name="Udieresis" unicode="&#xdc;" horiz-adv-x="741" 
d="M675 714v-444q0 -142 -79.5 -214.5t-225.5 -72.5q-147 0 -225.5 71.5t-78.5 215.5v444h157v-444q0 -71 30.5 -113t116.5 -42q82 0 115 36.5t33 118.5v444h157zM200 788v117h135v-117h-135zM406 788v117h135v-117h-135z" />
    <glyph glyph-name="Yacute" unicode="&#xdd;" horiz-adv-x="667" 
d="M254 0v278l-263 436h177l167 -282l166 282h175l-265 -440v-274h-157zM534 921l-154 -142h-99l96 142h157z" />
    <glyph glyph-name="Thorn" unicode="&#xde;" horiz-adv-x="667" 
d="M226 495v-214h122q64 0 101 22.5t37 84.5t-37 84.5t-101 22.5h-122zM69 0v714h157v-97h165q125 0 186 -66t61 -163t-61 -163t-186 -66h-165v-159h-157z" />
    <glyph glyph-name="germandbls" unicode="&#xdf;" horiz-adv-x="611" 
d="M56 0v491q0 240 235 240q97 0 162 -49t65 -143q0 -48 -26 -87t-67 -52v-2q63 -13 96.5 -62.5t33.5 -116.5q0 -95 -62 -164t-155 -69q-42 0 -82 6v116q16 -5 41 -5q50 0 83 35t33 86q0 56 -30.5 89t-91.5 33q-11 0 -35 -2v94q16 -2 22 -2q44 0 74.5 22.5t30.5 66.5
q0 89 -96 89q-42 0 -65.5 -26t-23.5 -72v-516h-142z" />
    <glyph glyph-name="agrave" unicode="&#xe0;" horiz-adv-x="574" 
d="M190 358h-142q6 91 75 132t168 41q227 0 227 -147v-269q0 -86 18 -115h-144q-9 28 -10 50q-61 -64 -174 -64q-78 0 -127 39.5t-49 115.5q0 55 26.5 90t65 47t83.5 20t83 10.5t62.5 16.5t23.5 41q0 41 -24 55.5t-68 14.5q-87 0 -94 -78zM376 200v53q-8 -7 -23 -12.5
t-27.5 -7.5t-34.5 -5t-33 -5q-84 -15 -84 -76q0 -66 87 -66q115 0 115 119zM282 589l-154 142h157l96 -142h-99z" />
    <glyph glyph-name="aacute" unicode="&#xe1;" horiz-adv-x="574" 
d="M190 358h-142q6 91 75 132t168 41q227 0 227 -147v-269q0 -86 18 -115h-144q-9 28 -10 50q-61 -64 -174 -64q-78 0 -127 39.5t-49 115.5q0 55 26.5 90t65 47t83.5 20t83 10.5t62.5 16.5t23.5 41q0 41 -24 55.5t-68 14.5q-87 0 -94 -78zM376 200v53q-8 -7 -23 -12.5
t-27.5 -7.5t-34.5 -5t-33 -5q-84 -15 -84 -76q0 -66 87 -66q115 0 115 119zM481 731l-154 -142h-99l96 142h157z" />
    <glyph glyph-name="acircumflex" unicode="&#xe2;" horiz-adv-x="574" 
d="M190 358h-142q6 91 75 132t168 41q227 0 227 -147v-269q0 -86 18 -115h-144q-9 28 -10 50q-61 -64 -174 -64q-78 0 -127 39.5t-49 115.5q0 55 26.5 90t65 47t83.5 20t83 10.5t62.5 16.5t23.5 41q0 41 -24 55.5t-68 14.5q-87 0 -94 -78zM376 200v53q-8 -7 -23 -12.5
t-27.5 -7.5t-34.5 -5t-33 -5q-84 -15 -84 -76q0 -66 87 -66q115 0 115 119zM117 589l111 142h130l110 -142h-117l-62 81l-64 -81h-108z" />
    <glyph glyph-name="atilde" unicode="&#xe3;" horiz-adv-x="574" 
d="M190 358h-142q6 91 75 132t168 41q227 0 227 -147v-269q0 -86 18 -115h-144q-9 28 -10 50q-61 -64 -174 -64q-78 0 -127 39.5t-49 115.5q0 55 26.5 90t65 47t83.5 20t83 10.5t62.5 16.5t23.5 41q0 41 -24 55.5t-68 14.5q-87 0 -94 -78zM376 200v53q-8 -7 -23 -12.5
t-27.5 -7.5t-34.5 -5t-33 -5q-84 -15 -84 -76q0 -66 87 -66q115 0 115 119zM406 721h69q-11 -53 -34 -82t-78 -32q-35 0 -81 17q-51 17 -68 17q-33 0 -45 -42h-61q6 48 37 84.5t80 37.5q29 0 72 -18q49 -17 65 -17q34 0 44 35z" />
    <glyph glyph-name="adieresis" unicode="&#xe4;" horiz-adv-x="574" 
d="M190 358h-142q6 91 75 132t168 41q227 0 227 -147v-269q0 -86 18 -115h-144q-9 28 -10 50q-61 -64 -174 -64q-78 0 -127 39.5t-49 115.5q0 55 26.5 90t65 47t83.5 20t83 10.5t62.5 16.5t23.5 41q0 41 -24 55.5t-68 14.5q-87 0 -94 -78zM376 200v53q-8 -7 -23 -12.5
t-27.5 -7.5t-34.5 -5t-33 -5q-84 -15 -84 -76q0 -66 87 -66q115 0 115 119zM122 598v117h135v-117h-135zM328 598v117h135v-117h-135z" />
    <glyph glyph-name="aring" unicode="&#xe5;" horiz-adv-x="574" 
d="M190 358h-142q6 91 75 132t168 41q227 0 227 -147v-269q0 -86 18 -115h-144q-9 28 -10 50q-61 -64 -174 -64q-78 0 -127 39.5t-49 115.5q0 55 26.5 90t65 47t83.5 20t83 10.5t62.5 16.5t23.5 41q0 41 -24 55.5t-68 14.5q-87 0 -94 -78zM376 200v53q-8 -7 -23 -12.5
t-27.5 -7.5t-34.5 -5t-33 -5q-84 -15 -84 -76q0 -66 87 -66q115 0 115 119zM169 684q0 51 35.5 86.5t86.5 35.5t87 -35.5t36 -86.5t-36 -86t-87 -35t-86.5 35t-35.5 86zM228 684q0 -30 17 -49t46 -19t46.5 19t17.5 49t-17.5 49t-46.5 19t-46 -19t-17 -49z" />
    <glyph glyph-name="ae" unicode="&#xe6;" horiz-adv-x="907" 
d="M509 314h227q0 51 -29.5 86.5t-81.5 35.5t-84 -36t-32 -86zM878 224h-369q-2 -54 32.5 -98.5t90.5 -44.5q89 0 103 81h138q-22 -82 -87 -129t-151 -47q-132 0 -193 88q-34 -45 -91 -66.5t-120 -21.5q-83 0 -138 37t-55 117q0 42 14 72t41.5 47t54 25t63.5 14
q117 18 132 23q41 16 42 49q0 66 -92 66q-95 0 -99 -80h-142q2 62 39 103t88.5 56.5t116.5 15.5q122 0 171 -70q60 70 173 70q82 0 137.5 -44.5t78 -111t22.5 -151.5zM385 188v64q-17 -13 -54 -20.5t-69 -11t-57 -21t-25 -51.5q0 -67 88 -67q45 0 81 27.5t36 79.5z" />
    <glyph glyph-name="ccedilla" unicode="&#xe7;" horiz-adv-x="574" 
d="M172 -195l21 48q42 -18 84 -18q40 0 40 34q0 32 -40 32q-22 0 -40 -7l-21 24l50 70q-43 5 -74 17q-72 29 -113 94.5t-41 151.5q0 124 70.5 202t193.5 78q98 0 167.5 -51t75.5 -145h-139q-14 89 -105 89q-62 0 -91.5 -50.5t-29.5 -117.5q0 -66 28.5 -114.5t89.5 -48.5
q98 0 113 105h137q-13 -102 -80 -158q-62 -50 -155 -54l-28 -38l1 -2q17 7 35 7q37 0 64.5 -18t27.5 -52q0 -54 -33.5 -77t-83.5 -23q-64 0 -124 22z" />
    <glyph glyph-name="egrave" unicode="&#xe8;" horiz-adv-x="574" 
d="M171 314h231q-10 56 -36.5 83t-76.5 27q-61 0 -88 -34.5t-30 -75.5zM544 224h-373q6 -131 127 -131q41 0 73 20.5t39 46.5h125q-57 -174 -242 -174q-121 0 -192.5 75.5t-71.5 196.5q0 118 73.5 195.5t190.5 77.5q126 0 193 -90t58 -217zM258 589l-154 142h157l96 -142
h-99z" />
    <glyph glyph-name="eacute" unicode="&#xe9;" horiz-adv-x="574" 
d="M171 314h231q-10 56 -36.5 83t-76.5 27q-61 0 -88 -34.5t-30 -75.5zM544 224h-373q6 -131 127 -131q41 0 73 20.5t39 46.5h125q-57 -174 -242 -174q-121 0 -192.5 75.5t-71.5 196.5q0 118 73.5 195.5t190.5 77.5q126 0 193 -90t58 -217zM492 731l-154 -142h-99l96 142
h157z" />
    <glyph glyph-name="ecircumflex" unicode="&#xea;" horiz-adv-x="574" 
d="M171 314h231q-10 56 -36.5 83t-76.5 27q-61 0 -88 -34.5t-30 -75.5zM544 224h-373q6 -131 127 -131q41 0 73 20.5t39 46.5h125q-57 -174 -242 -174q-121 0 -192.5 75.5t-71.5 196.5q0 118 73.5 195.5t190.5 77.5q126 0 193 -90t58 -217zM118 589l111 142h130l110 -142
h-117l-62 81l-64 -81h-108z" />
    <glyph glyph-name="edieresis" unicode="&#xeb;" horiz-adv-x="574" 
d="M171 314h231q-10 56 -36.5 83t-76.5 27q-61 0 -88 -34.5t-30 -75.5zM544 224h-373q6 -131 127 -131q41 0 73 20.5t39 46.5h125q-57 -174 -242 -174q-121 0 -192.5 75.5t-71.5 196.5q0 118 73.5 195.5t190.5 77.5q126 0 193 -90t58 -217zM122 598v117h135v-117h-135z
M328 598v117h135v-117h-135z" />
    <glyph glyph-name="igrave" unicode="&#xec;" horiz-adv-x="258" 
d="M58 0v517h142v-517h-142zM101 589l-154 142h157l96 -142h-99z" />
    <glyph glyph-name="iacute" unicode="&#xed;" horiz-adv-x="258" 
d="M58 0v517h142v-517h-142zM311 731l-154 -142h-99l96 142h157z" />
    <glyph glyph-name="icircumflex" unicode="&#xee;" horiz-adv-x="258" 
d="M58 0v517h142v-517h-142zM-44 589l111 142h130l110 -142h-117l-62 81l-64 -81h-108z" />
    <glyph glyph-name="idieresis" unicode="&#xef;" horiz-adv-x="258" 
d="M58 0v517h142v-517h-142zM-41 598v117h135v-117h-135zM165 598v117h135v-117h-135z" />
    <glyph glyph-name="eth" unicode="&#xf0;" horiz-adv-x="611" 
d="M133 593l107 54q-39 29 -84 50l92 69q54 -30 99 -66l123 62l52 -59l-114 -57q84 -81 125.5 -171t39.5 -202q0 -125 -73.5 -206t-194.5 -81q-120 0 -193.5 73t-73.5 188q0 66 23 122.5t77 96.5t130 40t135 -40h2q-26 60 -102 127l-112 -56zM305 93q67 0 96.5 47t29.5 118
q0 63 -31.5 108t-95.5 45t-94 -45t-30 -108q0 -71 29.5 -118t95.5 -47z" />
    <glyph glyph-name="ntilde" unicode="&#xf1;" 
d="M54 0v517h135v-72h3q26 42 68.5 64t89.5 22q107 0 148 -54t41 -159v-318h-142v292q0 65 -21 96t-70 31q-58 0 -84 -35t-26 -113v-271h-142zM412 721h69q-11 -53 -34 -82t-78 -32q-35 0 -81 17q-51 17 -68 17q-33 0 -45 -42h-61q6 48 37 84.5t80 37.5q29 0 72 -18
q49 -17 65 -17q34 0 44 35z" />
    <glyph glyph-name="ograve" unicode="&#xf2;" horiz-adv-x="611" 
d="M180 258q0 -71 29.5 -118t95.5 -47q67 0 96.5 47t29.5 118t-29.5 118.5t-96.5 47.5q-66 0 -95.5 -47.5t-29.5 -118.5zM38 258q0 124 73 198.5t194 74.5q122 0 195 -74.5t73 -198.5q0 -123 -73 -197.5t-195 -74.5q-121 0 -194 74.5t-73 197.5zM259 589l-154 142h157
l96 -142h-99z" />
    <glyph glyph-name="oacute" unicode="&#xf3;" horiz-adv-x="611" 
d="M180 258q0 -71 29.5 -118t95.5 -47q67 0 96.5 47t29.5 118t-29.5 118.5t-96.5 47.5q-66 0 -95.5 -47.5t-29.5 -118.5zM38 258q0 124 73 198.5t194 74.5q122 0 195 -74.5t73 -198.5q0 -123 -73 -197.5t-195 -74.5q-121 0 -194 74.5t-73 197.5zM504 731l-154 -142h-99
l96 142h157z" />
    <glyph glyph-name="ocircumflex" unicode="&#xf4;" horiz-adv-x="611" 
d="M180 258q0 -71 29.5 -118t95.5 -47q67 0 96.5 47t29.5 118t-29.5 118.5t-96.5 47.5q-66 0 -95.5 -47.5t-29.5 -118.5zM38 258q0 124 73 198.5t194 74.5q122 0 195 -74.5t73 -198.5q0 -123 -73 -197.5t-195 -74.5q-121 0 -194 74.5t-73 197.5zM132 589l111 142h130
l110 -142h-117l-62 81l-64 -81h-108z" />
    <glyph glyph-name="otilde" unicode="&#xf5;" horiz-adv-x="611" 
d="M180 258q0 -71 29.5 -118t95.5 -47q67 0 96.5 47t29.5 118t-29.5 118.5t-96.5 47.5q-66 0 -95.5 -47.5t-29.5 -118.5zM38 258q0 124 73 198.5t194 74.5q122 0 195 -74.5t73 -198.5q0 -123 -73 -197.5t-195 -74.5q-121 0 -194 74.5t-73 197.5zM421 721h69q-11 -53 -34 -82
t-78 -32q-35 0 -81 17q-51 17 -68 17q-33 0 -45 -42h-61q6 48 37 84.5t80 37.5q29 0 72 -18q49 -17 65 -17q34 0 44 35z" />
    <glyph glyph-name="odieresis" unicode="&#xf6;" horiz-adv-x="611" 
d="M180 258q0 -71 29.5 -118t95.5 -47q67 0 96.5 47t29.5 118t-29.5 118.5t-96.5 47.5q-66 0 -95.5 -47.5t-29.5 -118.5zM38 258q0 124 73 198.5t194 74.5q122 0 195 -74.5t73 -198.5q0 -123 -73 -197.5t-195 -74.5q-121 0 -194 74.5t-73 197.5zM136 598v117h135v-117h-135z
M342 598v117h135v-117h-135z" />
    <glyph glyph-name="divide" unicode="&#xf7;" horiz-adv-x="600" 
d="M216 45q0 35 25.5 59.5t59.5 24.5t59 -24.5t25 -59.5q0 -32 -25 -58.5t-58 -26.5q-35 0 -60.5 25.5t-25.5 59.5zM216 460q0 35 25.5 60t59.5 25t59 -25t25 -60q0 -33 -25 -58.5t-58 -25.5q-35 0 -60.5 25t-25.5 59zM48 199v107h505v-107h-505z" />
    <glyph glyph-name="oslash" unicode="&#xf8;" horiz-adv-x="611" 
d="M44 1l60 68q-66 72 -66 189q0 124 73 198.5t194 74.5q95 0 163 -48l53 61l37 -32l-54 -61q69 -74 69 -193q0 -123 -73 -197.5t-195 -74.5q-97 0 -165 50l-59 -67zM415 349l-195 -222q31 -34 85 -34q67 0 96.5 47t29.5 118q0 52 -16 91zM195 172l193 220q-30 32 -83 32
q-66 0 -95.5 -47.5t-29.5 -118.5q0 -52 15 -86z" />
    <glyph glyph-name="ugrave" unicode="&#xf9;" 
d="M539 517v-517h-135v72h-3q-26 -42 -68.5 -64t-89.5 -22q-107 0 -148 54t-41 159v318h142v-292q0 -65 21 -96t70 -31q58 0 84 35t26 113v271h142zM251 589l-154 142h157l96 -142h-99z" />
    <glyph glyph-name="uacute" unicode="&#xfa;" 
d="M539 517v-517h-135v72h-3q-26 -42 -68.5 -64t-89.5 -22q-107 0 -148 54t-41 159v318h142v-292q0 -65 21 -96t70 -31q58 0 84 35t26 113v271h142zM495 731l-154 -142h-99l96 142h157z" />
    <glyph glyph-name="ucircumflex" unicode="&#xfb;" 
d="M539 517v-517h-135v72h-3q-26 -42 -68.5 -64t-89.5 -22q-107 0 -148 54t-41 159v318h142v-292q0 -65 21 -96t70 -31q58 0 84 35t26 113v271h142zM123 589l111 142h130l110 -142h-117l-62 81l-64 -81h-108z" />
    <glyph glyph-name="udieresis" unicode="&#xfc;" 
d="M539 517v-517h-135v72h-3q-26 -42 -68.5 -64t-89.5 -22q-107 0 -148 54t-41 159v318h142v-292q0 -65 21 -96t70 -31q58 0 84 35t26 113v271h142zM128 598v117h135v-117h-135zM334 598v117h135v-117h-135z" />
    <glyph glyph-name="yacute" unicode="&#xfd;" horiz-adv-x="519" 
d="M525 517l-216 -582q-23 -63 -64.5 -90t-113.5 -27q-39 0 -87 5v117q54 -6 83 -5q27 3 41 21.5t14 43.5q0 17 -6 32l-182 485h152l117 -354h2l113 354h147zM464 731l-154 -142h-99l96 142h157z" />
    <glyph glyph-name="thorn" unicode="&#xfe;" horiz-adv-x="611" 
d="M438 257q0 70 -30.5 118.5t-93.5 48.5q-65 0 -94 -48t-29 -119q0 -70 30 -117t94 -47q65 0 94 46.5t29 117.5zM54 -182v896h142v-263h2q50 80 147 80q115 0 175 -79.5t60 -198.5q0 -111 -59.5 -189t-167.5 -78q-101 0 -155 78h-2v-246h-142z" />
    <glyph glyph-name="ydieresis" unicode="&#xff;" horiz-adv-x="519" 
d="M525 517l-216 -582q-23 -63 -64.5 -90t-113.5 -27q-39 0 -87 5v117q54 -6 83 -5q27 3 41 21.5t14 43.5q0 17 -6 32l-182 485h152l117 -354h2l113 354h147zM94 598v117h135v-117h-135zM300 598v117h135v-117h-135z" />
    <glyph glyph-name="Amacron" unicode="&#x100;" horiz-adv-x="685" 
d="M342 538l-93 -262h185l-90 262h-2zM-7 0l271 714h161l267 -714h-163l-54 159h-267l-56 -159h-159zM159 809v75h373v-75h-373z" />
    <glyph glyph-name="amacron" unicode="&#x101;" horiz-adv-x="574" 
d="M190 358h-142q6 91 75 132t168 41q227 0 227 -147v-269q0 -86 18 -115h-144q-9 28 -10 50q-61 -64 -174 -64q-78 0 -127 39.5t-49 115.5q0 55 26.5 90t65 47t83.5 20t83 10.5t62.5 16.5t23.5 41q0 41 -24 55.5t-68 14.5q-87 0 -94 -78zM376 200v53q-8 -7 -23 -12.5
t-27.5 -7.5t-34.5 -5t-33 -5q-84 -15 -84 -76q0 -66 87 -66q115 0 115 119zM107 619v75h373v-75h-373z" />
    <glyph glyph-name="Abreve" unicode="&#x102;" horiz-adv-x="685" 
d="M342 538l-93 -262h185l-90 262h-2zM-7 0l271 714h161l267 -714h-163l-54 159h-267l-56 -159h-159zM177 923h65q5 -37 34 -54t65 -17q93 0 110 71h63q-18 -146 -178 -146q-147 0 -159 146z" />
    <glyph glyph-name="abreve" unicode="&#x103;" horiz-adv-x="574" 
d="M190 358h-142q6 91 75 132t168 41q227 0 227 -147v-269q0 -86 18 -115h-144q-9 28 -10 50q-61 -64 -174 -64q-78 0 -127 39.5t-49 115.5q0 55 26.5 90t65 47t83.5 20t83 10.5t62.5 16.5t23.5 41q0 41 -24 55.5t-68 14.5q-87 0 -94 -78zM376 200v53q-8 -7 -23 -12.5
t-27.5 -7.5t-34.5 -5t-33 -5q-84 -15 -84 -76q0 -66 87 -66q115 0 115 119zM126 733h65q5 -37 34 -54t65 -17q93 0 110 71h63q-18 -146 -178 -146q-147 0 -159 146z" />
    <glyph glyph-name="Aogonek" unicode="&#x104;" horiz-adv-x="685" 
d="M607 -127l48 -22q-54 -68 -133 -68q-37 0 -63 13q-19 9 -31.5 28.5t-12.5 40.5q0 27 16 53q24 38 98 82l-54 159h-267l-56 -159h-159l271 714h161l267 -714h-98q-83 -74 -83 -117q0 -19 11.5 -29.5t27.5 -10.5q28 0 57 30zM342 538l-93 -262h185l-90 262h-2z" />
    <glyph glyph-name="aogonek" unicode="&#x105;" horiz-adv-x="574" 
d="M465 -127l45 -22q-50 -68 -124 -68q-34 0 -59 13q-17 10 -29 29t-12 40q0 27 15 53q25 40 91 82q-9 28 -10 50q-61 -64 -174 -64q-78 0 -127 39.5t-49 115.5q0 55 26.5 90t65 47t83.5 20t83 10.5t62.5 16.5t23.5 41q0 41 -24 55.5t-68 14.5q-87 0 -94 -78h-142
q6 91 75 132t168 41q227 0 227 -147v-269q0 -86 18 -115h-83q-77 -73 -77 -117q0 -19 10.5 -29.5t25.5 -10.5q27 0 53 30zM376 200v53q-8 -7 -23 -12.5t-27.5 -7.5t-34.5 -5t-33 -5q-84 -15 -84 -76q0 -66 87 -66q115 0 115 119z" />
    <glyph glyph-name="Cacute" unicode="&#x106;" horiz-adv-x="741" 
d="M697 474h-152q-8 53 -53 89t-103 36q-67 0 -112 -36t-63.5 -89.5t-18.5 -119.5q0 -100 48 -169.5t146 -69.5q70 0 111.5 43t50.5 117h152q-12 -134 -97 -213t-217 -79q-161 0 -256 106t-95 265q0 163 95 270t256 107q121 0 207.5 -68.5t100.5 -188.5zM586 921l-154 -142
h-99l96 142h157z" />
    <glyph glyph-name="cacute" unicode="&#x107;" horiz-adv-x="574" 
d="M545 335h-139q-14 89 -105 89q-62 0 -91.5 -50.5t-29.5 -117.5q0 -66 28.5 -114.5t89.5 -48.5q98 0 113 105h137q-14 -102 -79.5 -157t-169.5 -55q-116 0 -188.5 74t-72.5 191q0 124 70.5 202t193.5 78q98 0 167.5 -51t75.5 -145zM504 731l-154 -142h-99l96 142h157z" />
    <glyph glyph-name="Ccircumflex" unicode="&#x108;" horiz-adv-x="741" 
d="M697 474h-152q-8 53 -53 89t-103 36q-67 0 -112 -36t-63.5 -89.5t-18.5 -119.5q0 -100 48 -169.5t146 -69.5q70 0 111.5 43t50.5 117h152q-12 -134 -97 -213t-217 -79q-161 0 -256 106t-95 265q0 163 95 270t256 107q121 0 207.5 -68.5t100.5 -188.5zM214 779l111 142
h130l110 -142h-117l-62 81l-64 -81h-108z" />
    <glyph glyph-name="ccircumflex" unicode="&#x109;" horiz-adv-x="574" 
d="M545 335h-139q-14 89 -105 89q-62 0 -91.5 -50.5t-29.5 -117.5q0 -66 28.5 -114.5t89.5 -48.5q98 0 113 105h137q-14 -102 -79.5 -157t-169.5 -55q-116 0 -188.5 74t-72.5 191q0 124 70.5 202t193.5 78q98 0 167.5 -51t75.5 -145zM132 589l111 142h130l110 -142h-117
l-62 81l-64 -81h-108z" />
    <glyph glyph-name="Cdotaccent" unicode="&#x10a;" horiz-adv-x="741" 
d="M697 474h-152q-8 53 -53 89t-103 36q-67 0 -112 -36t-63.5 -89.5t-18.5 -119.5q0 -100 48 -169.5t146 -69.5q70 0 111.5 43t50.5 117h152q-12 -134 -97 -213t-217 -79q-161 0 -256 106t-95 265q0 163 95 270t256 107q121 0 207.5 -68.5t100.5 -188.5zM315 788v117h135
v-117h-135z" />
    <glyph glyph-name="cdotaccent" unicode="&#x10b;" horiz-adv-x="574" 
d="M545 335h-139q-14 89 -105 89q-62 0 -91.5 -50.5t-29.5 -117.5q0 -66 28.5 -114.5t89.5 -48.5q98 0 113 105h137q-14 -102 -79.5 -157t-169.5 -55q-116 0 -188.5 74t-72.5 191q0 124 70.5 202t193.5 78q98 0 167.5 -51t75.5 -145zM237 598v117h135v-117h-135z" />
    <glyph glyph-name="Ccaron" unicode="&#x10c;" horiz-adv-x="741" 
d="M697 474h-152q-8 53 -53 89t-103 36q-67 0 -112 -36t-63.5 -89.5t-18.5 -119.5q0 -100 48 -169.5t146 -69.5q70 0 111.5 43t50.5 117h152q-12 -134 -97 -213t-217 -79q-161 0 -256 106t-95 265q0 163 95 270t256 107q121 0 207.5 -68.5t100.5 -188.5zM558 921l-110 -142
h-130l-111 142h112l64 -81l65 81h110z" />
    <glyph glyph-name="ccaron" unicode="&#x10d;" horiz-adv-x="574" 
d="M545 335h-139q-14 89 -105 89q-62 0 -91.5 -50.5t-29.5 -117.5q0 -66 28.5 -114.5t89.5 -48.5q98 0 113 105h137q-14 -102 -79.5 -157t-169.5 -55q-116 0 -188.5 74t-72.5 191q0 124 70.5 202t193.5 78q98 0 167.5 -51t75.5 -145zM482 731l-110 -142h-130l-111 142h112
l64 -81l65 81h110z" />
    <glyph glyph-name="Dcaron" unicode="&#x10e;" horiz-adv-x="741" 
d="M226 582v-450h140q76 0 127 52t51 162q0 115 -47.5 175.5t-158.5 60.5h-112zM69 0v714h308q145 0 234.5 -91t89.5 -262q0 -162 -83 -261.5t-241 -99.5h-308zM508 921l-110 -142h-130l-111 142h112l64 -81l65 81h110z" />
    <glyph glyph-name="dcaron" unicode="&#x10f;" horiz-adv-x="720" 
d="M421 260q0 71 -29 117.5t-93 46.5q-65 0 -95 -47t-30 -118q0 -68 31.5 -117t93.5 -49q65 0 93.5 47.5t28.5 119.5zM423 0v66h-2q-47 -80 -157 -80q-111 0 -171.5 80.5t-60.5 196.5q0 112 60.5 190t168.5 78q47 0 88.5 -20t64.5 -57h2v260h142v-714h-135zM786 714
l-85 -142h-98l35 142h148z" />
    <glyph glyph-name="Dcroat" unicode="&#x110;" horiz-adv-x="741" 
d="M226 582v-155h160v-117h-160v-178h140q76 0 127 52t51 162q0 115 -47.5 175.5t-158.5 60.5h-112zM69 0v311h-66v116h66v287h308q145 0 234.5 -91t89.5 -262q0 -162 -83 -261.5t-241 -99.5h-308z" />
    <glyph glyph-name="dcroat" unicode="&#x111;" horiz-adv-x="634" 
d="M261 567v75h155v72h142v-72h76v-75h-76v-567h-135v66h-2q-47 -80 -157 -80q-111 0 -171.5 80.5t-60.5 196.5q0 112 60.5 190t168.5 78q47 0 88.5 -20t64.5 -57h2v113h-155zM421 260q0 71 -29 117.5t-93 46.5q-65 0 -95 -47t-30 -118q0 -68 31.5 -117t93.5 -49
q65 0 93.5 47.5t28.5 119.5z" />
    <glyph glyph-name="Emacron" unicode="&#x112;" horiz-adv-x="648" 
d="M69 0v714h534v-132h-377v-153h346v-122h-346v-175h385v-132h-542zM148 809v75h373v-75h-373z" />
    <glyph glyph-name="emacron" unicode="&#x113;" horiz-adv-x="574" 
d="M171 314h231q-10 56 -36.5 83t-76.5 27q-61 0 -88 -34.5t-30 -75.5zM544 224h-373q6 -131 127 -131q41 0 73 20.5t39 46.5h125q-57 -174 -242 -174q-121 0 -192.5 75.5t-71.5 196.5q0 118 73.5 195.5t190.5 77.5q126 0 193 -90t58 -217zM105 619v75h373v-75h-373z" />
    <glyph glyph-name="Ebreve" unicode="&#x114;" horiz-adv-x="648" 
d="M69 0v714h534v-132h-377v-153h346v-122h-346v-175h385v-132h-542zM161 923h65q5 -37 34 -54t65 -17q93 0 110 71h63q-18 -146 -178 -146q-147 0 -159 146z" />
    <glyph glyph-name="ebreve" unicode="&#x115;" horiz-adv-x="574" 
d="M171 314h231q-10 56 -36.5 83t-76.5 27q-61 0 -88 -34.5t-30 -75.5zM544 224h-373q6 -131 127 -131q41 0 73 20.5t39 46.5h125q-57 -174 -242 -174q-121 0 -192.5 75.5t-71.5 196.5q0 118 73.5 195.5t190.5 77.5q126 0 193 -90t58 -217zM125 733h65q5 -37 34 -54t65 -17
q93 0 110 71h63q-18 -146 -178 -146q-147 0 -159 146z" />
    <glyph glyph-name="Edotaccent" unicode="&#x116;" horiz-adv-x="648" 
d="M69 0v714h534v-132h-377v-153h346v-122h-346v-175h385v-132h-542zM267 788v117h135v-117h-135z" />
    <glyph glyph-name="edotaccent" unicode="&#x117;" horiz-adv-x="574" 
d="M171 314h231q-10 56 -36.5 83t-76.5 27q-61 0 -88 -34.5t-30 -75.5zM544 224h-373q6 -131 127 -131q41 0 73 20.5t39 46.5h125q-57 -174 -242 -174q-121 0 -192.5 75.5t-71.5 196.5q0 118 73.5 195.5t190.5 77.5q126 0 193 -90t58 -217zM225 598v117h135v-117h-135z" />
    <glyph glyph-name="Eogonek" unicode="&#x118;" horiz-adv-x="648" 
d="M563 -127l48 -22q-54 -68 -133 -68q-37 0 -63 13q-19 9 -31.5 28.5t-12.5 40.5q0 27 16 53q24 38 98 82h-416v714h534v-132h-377v-153h346v-122h-346v-175h385v-132h-61q-83 -74 -83 -117q0 -19 11.5 -29.5t27.5 -10.5q28 0 57 30z" />
    <glyph glyph-name="eogonek" unicode="&#x119;" horiz-adv-x="574" 
d="M361 -127l48 -22q-54 -68 -133 -68q-37 0 -63 13q-19 9 -31.5 28.5t-12.5 40.5q1 25 9 41.5t40 48.5q15 14 44 33q-43 3 -79 18q-73 29 -113.5 95.5t-40.5 156.5q0 118 73.5 195.5t190.5 77.5q126 0 193 -90t58 -217h-373q6 -131 127 -131q41 0 73 20.5t39 46.5h125
q-30 -92 -92 -133q-45 -30 -108 -38q-37 -34 -53 -58q-17 -28 -17 -48q0 -19 11.5 -29.5t27.5 -10.5q28 0 57 30zM171 314h231q-10 56 -36.5 83t-76.5 27q-61 0 -88 -34.5t-30 -75.5z" />
    <glyph glyph-name="Ecaron" unicode="&#x11a;" horiz-adv-x="648" 
d="M69 0v714h534v-132h-377v-153h346v-122h-346v-175h385v-132h-542zM508 921l-110 -142h-130l-111 142h112l64 -81l65 81h110z" />
    <glyph glyph-name="ecaron" unicode="&#x11b;" horiz-adv-x="574" 
d="M171 314h231q-10 56 -36.5 83t-76.5 27q-61 0 -88 -34.5t-30 -75.5zM544 224h-373q6 -131 127 -131q41 0 73 20.5t39 46.5h125q-57 -174 -242 -174q-121 0 -192.5 75.5t-71.5 196.5q0 118 73.5 195.5t190.5 77.5q126 0 193 -90t58 -217zM469 731l-110 -142h-130l-111 142
h112l64 -81l65 81h110z" />
    <glyph glyph-name="Gcircumflex" unicode="&#x11c;" horiz-adv-x="759" 
d="M601 0l-16 81q-76 -98 -196 -98q-161 0 -256 106t-95 265q0 163 95 270t256 107q116 0 202.5 -67.5t98.5 -184.5h-150q-14 59 -54 89.5t-97 30.5q-67 0 -112 -36t-63.5 -89.5t-18.5 -119.5q0 -100 48 -169.5t146 -69.5q156 0 170 154h-158v117h300v-386h-100zM215 779
l111 142h130l110 -142h-117l-62 81l-64 -81h-108z" />
    <glyph glyph-name="gcircumflex" unicode="&#x11d;" horiz-adv-x="611" 
d="M295 122q58 0 89.5 41.5t31.5 101.5q0 70 -28.5 114.5t-92.5 44.5q-57 0 -86 -42t-29 -105q0 -41 10 -74t37 -57t68 -24zM551 517v-484q0 -30 -5 -57t-21.5 -60t-44.5 -56.5t-78.5 -39.5t-118.5 -16q-86 0 -154 42.5t-74 123.5h141q17 -71 106 -71q57 0 86 34.5t28 93.5
v68h-2q-22 -40 -63.5 -60t-91.5 -20q-111 0 -166 72.5t-55 187.5q0 106 59.5 181t162.5 75q106 0 154 -83h2v69h135zM146 589l111 142h130l110 -142h-117l-62 81l-64 -81h-108z" />
    <glyph glyph-name="Gbreve" unicode="&#x11e;" horiz-adv-x="759" 
d="M601 0l-16 81q-76 -98 -196 -98q-161 0 -256 106t-95 265q0 163 95 270t256 107q116 0 202.5 -67.5t98.5 -184.5h-150q-14 59 -54 89.5t-97 30.5q-67 0 -112 -36t-63.5 -89.5t-18.5 -119.5q0 -100 48 -169.5t146 -69.5q156 0 170 154h-158v117h300v-386h-100zM216 923h65
q5 -37 34 -54t65 -17q93 0 110 71h63q-18 -146 -178 -146q-147 0 -159 146z" />
    <glyph glyph-name="gbreve" unicode="&#x11f;" horiz-adv-x="611" 
d="M295 122q58 0 89.5 41.5t31.5 101.5q0 70 -28.5 114.5t-92.5 44.5q-57 0 -86 -42t-29 -105q0 -41 10 -74t37 -57t68 -24zM551 517v-484q0 -30 -5 -57t-21.5 -60t-44.5 -56.5t-78.5 -39.5t-118.5 -16q-86 0 -154 42.5t-74 123.5h141q17 -71 106 -71q57 0 86 34.5t28 93.5
v68h-2q-22 -40 -63.5 -60t-91.5 -20q-111 0 -166 72.5t-55 187.5q0 106 59.5 181t162.5 75q106 0 154 -83h2v69h135zM132 733h65q5 -37 34 -54t65 -17q93 0 110 71h63q-18 -146 -178 -146q-147 0 -159 146z" />
    <glyph glyph-name="Gdotaccent" unicode="&#x120;" horiz-adv-x="759" 
d="M601 0l-16 81q-76 -98 -196 -98q-161 0 -256 106t-95 265q0 163 95 270t256 107q116 0 202.5 -67.5t98.5 -184.5h-150q-14 59 -54 89.5t-97 30.5q-67 0 -112 -36t-63.5 -89.5t-18.5 -119.5q0 -100 48 -169.5t146 -69.5q156 0 170 154h-158v117h300v-386h-100zM321 788
v117h135v-117h-135z" />
    <glyph glyph-name="gdotaccent" unicode="&#x121;" horiz-adv-x="611" 
d="M295 122q58 0 89.5 41.5t31.5 101.5q0 70 -28.5 114.5t-92.5 44.5q-57 0 -86 -42t-29 -105q0 -41 10 -74t37 -57t68 -24zM551 517v-484q0 -30 -5 -57t-21.5 -60t-44.5 -56.5t-78.5 -39.5t-118.5 -16q-86 0 -154 42.5t-74 123.5h141q17 -71 106 -71q57 0 86 34.5t28 93.5
v68h-2q-22 -40 -63.5 -60t-91.5 -20q-111 0 -166 72.5t-55 187.5q0 106 59.5 181t162.5 75q106 0 154 -83h2v69h135zM240 598v117h135v-117h-135z" />
    <glyph glyph-name="Gcommaaccent" unicode="&#x122;" horiz-adv-x="759" 
d="M601 0l-16 81q-76 -98 -196 -98q-161 0 -256 106t-95 265q0 163 95 270t256 107q116 0 202.5 -67.5t98.5 -184.5h-150q-14 59 -54 89.5t-97 30.5q-67 0 -112 -36t-63.5 -89.5t-18.5 -119.5q0 -100 48 -169.5t146 -69.5q156 0 170 154h-158v117h300v-386h-100zM309 -143
v93h145v-73q0 -58 -34 -76t-101 -18v37q48 4 57 37h-67z" />
    <glyph glyph-name="gcommaaccent" unicode="&#x123;" horiz-adv-x="611" 
d="M295 122q58 0 89.5 41.5t31.5 101.5q0 70 -28.5 114.5t-92.5 44.5q-57 0 -86 -42t-29 -105q0 -41 10 -74t37 -57t68 -24zM551 517v-484q0 -30 -5 -57t-21.5 -60t-44.5 -56.5t-78.5 -39.5t-118.5 -16q-86 0 -154 42.5t-74 123.5h141q17 -71 106 -71q57 0 86 34.5t28 93.5
v68h-2q-22 -40 -63.5 -60t-91.5 -20q-111 0 -166 72.5t-55 187.5q0 106 59.5 181t162.5 75q106 0 154 -83h2v69h135zM384 714v-93h-145v73q0 58 34 76t101 18v-37q-48 -4 -57 -37h67z" />
    <glyph glyph-name="Hcircumflex" unicode="&#x124;" horiz-adv-x="741" 
d="M69 0v714h157v-274h289v274h157v-714h-157v308h-289v-308h-157zM194 779l111 142h130l110 -142h-117l-62 81l-64 -81h-108z" />
    <glyph glyph-name="hcircumflex" unicode="&#x125;" 
d="M54 0v714h142v-269h3q26 42 67 64t84 22q107 0 148 -54t41 -159v-318h-142v292q0 65 -21 96t-70 31q-58 0 -84 -35t-26 -113v-271h-142zM124 779l111 142h130l110 -142h-117l-62 81l-64 -81h-108z" />
    <glyph glyph-name="Hbar" unicode="&#x126;" horiz-adv-x="741" 
d="M69 0v714h157v-143h289v143h157v-714h-157v298h-289v-298h-157zM226 420h289v76h-289v-76z" />
    <glyph glyph-name="hbar" unicode="&#x127;" horiz-adv-x="623" 
d="M-6 567v75h90v72h142v-72h141v-75h-141v-122h3q26 42 67 64t84 22q107 0 148 -54t41 -159v-318h-142v292q0 65 -21 96t-70 31q-58 0 -84 -35t-26 -113v-271h-142v567h-90z" />
    <glyph glyph-name="Itilde" unicode="&#x128;" horiz-adv-x="295" 
d="M69 0v714h157v-714h-157zM266 911h69q-11 -53 -34 -82t-78 -32q-35 0 -81 17q-51 17 -68 17q-33 0 -45 -42h-61q6 48 37 84.5t80 37.5q29 0 72 -18q49 -17 65 -17q34 0 44 35z" />
    <glyph glyph-name="itilde" unicode="&#x129;" horiz-adv-x="258" 
d="M58 0v517h142v-517h-142zM244 721h69q-11 -53 -34 -82t-78 -32q-35 0 -81 17q-51 17 -68 17q-33 0 -45 -42h-61q6 48 37 84.5t80 37.5q29 0 72 -18q49 -17 65 -17q34 0 44 35z" />
    <glyph glyph-name="Imacron" unicode="&#x12a;" horiz-adv-x="295" 
d="M69 0v714h157v-714h-157zM-37 809v75h373v-75h-373z" />
    <glyph glyph-name="imacron" unicode="&#x12b;" horiz-adv-x="258" 
d="M58 0v517h142v-517h-142zM-56 619v75h373v-75h-373z" />
    <glyph glyph-name="Iogonek" unicode="&#x12e;" horiz-adv-x="295" 
d="M212 -127l43 -22q-49 -68 -120 -68q-32 0 -57 13q-16 9 -27.5 28.5t-11.5 40.5q0 29 14 53q22 39 89 82h-73v714h157v-714h-26q-75 -75 -75 -117q0 -19 10.5 -29.5t25.5 -10.5q26 0 51 30z" />
    <glyph glyph-name="iogonek" unicode="&#x12f;" horiz-adv-x="258" 
d="M191 -127l43 -22q-49 -68 -120 -68q-32 0 -57 13q-16 9 -27.5 28.5t-11.5 40.5q0 29 14 53q22 39 89 82h-63v517h142v-517h-21q-75 -75 -75 -117q0 -19 10.5 -29.5t25.5 -10.5q26 0 51 30zM200 714v-117h-142v117h142z" />
    <glyph glyph-name="Idotaccent" unicode="&#x130;" horiz-adv-x="295" 
d="M69 0v714h157v-714h-157zM81 788v117h135v-117h-135z" />
    <glyph glyph-name="dotlessi" unicode="&#x131;" horiz-adv-x="258" 
d="M58 0v517h142v-517h-142z" />
    <glyph glyph-name="Jcircumflex" unicode="&#x134;" horiz-adv-x="556" 
d="M487 714v-489q0 -242 -238 -242q-98 0 -166.5 55.5t-68.5 165.5v62h142v-32q0 -58 19.5 -88.5t71.5 -30.5q29 0 47.5 10t25.5 30.5t8.5 35.5t1.5 41v482h157zM234 779l111 142h130l110 -142h-117l-62 81l-64 -81h-108z" />
    <glyph glyph-name="jcircumflex" unicode="&#x135;" horiz-adv-x="278" 
d="M-19 -178v117q11 -4 31 -4q55 0 55 46v536h142v-543q0 -83 -39 -119.5t-143 -36.5q-26 0 -46 4zM-40 589l111 142h130l110 -142h-117l-62 81l-64 -81h-108z" />
    <glyph glyph-name="Kcommaaccent" unicode="&#x136;" horiz-adv-x="722" 
d="M69 0v714h157v-296l279 296h196l-279 -282l306 -432h-197l-215 321l-90 -91v-230h-157zM297 -143v93h145v-73q0 -58 -34 -76t-101 -18v37q48 4 57 37h-67z" />
    <glyph glyph-name="kcommaaccent" unicode="&#x137;" horiz-adv-x="574" 
d="M67 0v714h142v-383l179 186h168l-195 -190l217 -327h-172l-142 231l-55 -53v-178h-142zM235 -143v93h145v-73q0 -58 -34 -76t-101 -18v37q48 4 57 37h-67z" />
    <glyph glyph-name="Lacute" unicode="&#x139;" 
d="M69 0v714h157v-582h348v-132h-505zM350 921l-154 -142h-99l96 142h157z" />
    <glyph glyph-name="lacute" unicode="&#x13a;" horiz-adv-x="258" 
d="M58 0v714h142v-714h-142zM311 921l-154 -142h-99l96 142h157z" />
    <glyph glyph-name="Lcommaaccent" unicode="&#x13b;" 
d="M69 0v714h157v-582h348v-132h-505zM244 -143v93h145v-73q0 -58 -34 -76t-101 -18v37q48 4 57 37h-67z" />
    <glyph glyph-name="lcommaaccent" unicode="&#x13c;" horiz-adv-x="258" 
d="M58 0v714h142v-714h-142zM56 -143v93h145v-73q0 -58 -34 -76t-101 -18v37q48 4 57 37h-67z" />
    <glyph glyph-name="Lcaron" unicode="&#x13d;" 
d="M69 0v714h157v-582h348v-132h-505zM504 714l-85 -142h-98l35 142h148z" />
    <glyph glyph-name="lcaron" unicode="&#x13e;" horiz-adv-x="363" 
d="M58 0v714h142v-714h-142zM429 714l-85 -142h-98l35 142h148z" />
    <glyph glyph-name="Ldot" unicode="&#x13f;" 
d="M69 0v714h157v-582h348v-132h-505zM343 400v117h135v-117h-135z" />
    <glyph glyph-name="ldot" unicode="&#x140;" horiz-adv-x="435" 
d="M58 0v714h142v-714h-142zM260 400v117h135v-117h-135z" />
    <glyph glyph-name="Lslash" unicode="&#x141;" 
d="M69 0v214l-80 -56v112l80 56v388h157v-278l211 148v-112l-211 -148v-192h348v-132h-505z" />
    <glyph glyph-name="lslash" unicode="&#x142;" horiz-adv-x="258" 
d="M58 0v286l-67 -53v102l67 53v326h142v-214l67 53v-102l-67 -53v-398h-142z" />
    <glyph glyph-name="Nacute" unicode="&#x143;" horiz-adv-x="741" 
d="M69 0v714h156l298 -479h2v479h147v-714h-157l-297 478h-2v-478h-147zM560 921l-154 -142h-99l96 142h157z" />
    <glyph glyph-name="nacute" unicode="&#x144;" 
d="M54 0v517h135v-72h3q26 42 68.5 64t89.5 22q107 0 148 -54t41 -159v-318h-142v292q0 65 -21 96t-70 31q-58 0 -84 -35t-26 -113v-271h-142zM485 731l-154 -142h-99l96 142h157z" />
    <glyph glyph-name="Ncommaaccent" unicode="&#x145;" horiz-adv-x="741" 
d="M69 0v714h156l298 -479h2v479h147v-714h-157l-297 478h-2v-478h-147zM300 -143v93h145v-73q0 -58 -34 -76t-101 -18v37q48 4 57 37h-67z" />
    <glyph glyph-name="ncommaaccent" unicode="&#x146;" 
d="M54 0v517h135v-72h3q26 42 68.5 64t89.5 22q107 0 148 -54t41 -159v-318h-142v292q0 65 -21 96t-70 31q-58 0 -84 -35t-26 -113v-271h-142zM221 -143v93h145v-73q0 -58 -34 -76t-101 -18v37q48 4 57 37h-67z" />
    <glyph glyph-name="Ncaron" unicode="&#x147;" horiz-adv-x="741" 
d="M69 0v714h156l298 -479h2v479h147v-714h-157l-297 478h-2v-478h-147zM540 921l-110 -142h-130l-111 142h112l64 -81l65 81h110z" />
    <glyph glyph-name="ncaron" unicode="&#x148;" 
d="M54 0v517h135v-72h3q26 42 68.5 64t89.5 22q107 0 148 -54t41 -159v-318h-142v292q0 65 -21 96t-70 31q-58 0 -84 -35t-26 -113v-271h-142zM474 731l-110 -142h-130l-111 142h112l64 -81l65 81h110z" />
    <glyph glyph-name="Omacron" unicode="&#x14c;" horiz-adv-x="778" 
d="M195 354q0 -100 48 -169.5t146 -69.5t146 69.5t48 169.5q0 66 -18.5 119.5t-63.5 89.5t-112 36t-112 -36t-63.5 -89.5t-18.5 -119.5zM38 354q0 163 95 270t256 107t256 -107t95 -270q0 -159 -95 -265t-256 -106t-256 106t-95 265zM204 809v75h373v-75h-373z" />
    <glyph glyph-name="omacron" unicode="&#x14d;" horiz-adv-x="611" 
d="M180 258q0 -71 29.5 -118t95.5 -47q67 0 96.5 47t29.5 118t-29.5 118.5t-96.5 47.5q-66 0 -95.5 -47.5t-29.5 -118.5zM38 258q0 124 73 198.5t194 74.5q122 0 195 -74.5t73 -198.5q0 -123 -73 -197.5t-195 -74.5q-121 0 -194 74.5t-73 197.5zM121 619v75h373v-75h-373z
" />
    <glyph glyph-name="Obreve" unicode="&#x14e;" horiz-adv-x="778" 
d="M195 354q0 -100 48 -169.5t146 -69.5t146 69.5t48 169.5q0 66 -18.5 119.5t-63.5 89.5t-112 36t-112 -36t-63.5 -89.5t-18.5 -119.5zM38 354q0 163 95 270t256 107t256 -107t95 -270q0 -159 -95 -265t-256 -106t-256 106t-95 265zM227 923h65q5 -37 34 -54t65 -17
q93 0 110 71h63q-18 -146 -178 -146q-147 0 -159 146z" />
    <glyph glyph-name="obreve" unicode="&#x14f;" horiz-adv-x="611" 
d="M180 258q0 -71 29.5 -118t95.5 -47q67 0 96.5 47t29.5 118t-29.5 118.5t-96.5 47.5q-66 0 -95.5 -47.5t-29.5 -118.5zM38 258q0 124 73 198.5t194 74.5q122 0 195 -74.5t73 -198.5q0 -123 -73 -197.5t-195 -74.5q-121 0 -194 74.5t-73 197.5zM143 733h65q5 -37 34 -54
t65 -17q93 0 110 71h63q-18 -146 -178 -146q-147 0 -159 146z" />
    <glyph glyph-name="Ohungarumlaut" unicode="&#x150;" horiz-adv-x="778" 
d="M195 354q0 -100 48 -169.5t146 -69.5t146 69.5t48 169.5q0 66 -18.5 119.5t-63.5 89.5t-112 36t-112 -36t-63.5 -89.5t-18.5 -119.5zM38 354q0 163 95 270t256 107t256 -107t95 -270q0 -159 -95 -265t-256 -106t-256 106t-95 265zM689 921l-149 -142h-99l91 142h157z
M482 921l-149 -142h-99l91 142h157z" />
    <glyph glyph-name="ohungarumlaut" unicode="&#x151;" horiz-adv-x="611" 
d="M180 258q0 -71 29.5 -118t95.5 -47q67 0 96.5 47t29.5 118t-29.5 118.5t-96.5 47.5q-66 0 -95.5 -47.5t-29.5 -118.5zM38 258q0 124 73 198.5t194 74.5q122 0 195 -74.5t73 -198.5q0 -123 -73 -197.5t-195 -74.5q-121 0 -194 74.5t-73 197.5zM606 731l-149 -142h-99
l91 142h157zM399 731l-149 -142h-99l91 142h157z" />
    <glyph glyph-name="OE" unicode="&#x152;" horiz-adv-x="1093" 
d="M538 278v170q0 67 -43.5 109t-110.5 42q-50 0 -88 -21t-59 -56.5t-31.5 -77.5t-10.5 -89q0 -99 46.5 -169.5t139.5 -70.5q72 0 114.5 45t42.5 118zM544 0v54h-2q-65 -71 -172 -71q-153 0 -242.5 107.5t-89.5 262.5q0 101 38.5 186t116.5 138.5t180 53.5q116 0 169 -68h2
v51h500v-132h-354v-153h324v-122h-324v-175h361v-132h-507z" />
    <glyph glyph-name="oe" unicode="&#x153;" horiz-adv-x="926" 
d="M897 224h-369q0 -59 31.5 -95t91.5 -36q75 0 104 71h138q-25 -84 -89.5 -131t-152.5 -47q-132 0 -187 88q-26 -44 -76 -66t-107 -22q-115 0 -179 79t-64 196q0 116 70 193t184 77q126 0 178 -82q24 37 74.5 59.5t98.5 22.5q129 0 191.5 -86.5t62.5 -220.5zM290 93
q114 0 114 167q0 164 -111 164q-60 0 -86.5 -49t-26.5 -119q0 -64 26 -113.5t84 -49.5zM528 314h227q-5 110 -115 110q-52 0 -81 -31t-31 -79z" />
    <glyph glyph-name="Racute" unicode="&#x154;" horiz-adv-x="722" 
d="M226 592v-201h172q108 0 108 102q0 99 -108 99h-172zM69 0v714h385q94 0 151.5 -57t57.5 -140q0 -134 -113 -179v-2q94 -26 104 -167q0 -2 2 -37.5t3.5 -51.5t8 -41t16.5 -39h-157q-8 20 -12 48.5t-7 66.5t-6 56q-8 58 -34.5 83t-84.5 25h-157v-279h-157zM512 921
l-154 -142h-99l96 142h157z" />
    <glyph glyph-name="racute" unicode="&#x155;" horiz-adv-x="389" 
d="M54 0v517h135v-96h2q20 49 66 79.5t99 30.5q14 0 31 -5v-132q-22 5 -51 5q-140 0 -140 -166v-233h-142zM341 731l-154 -142h-99l96 142h157z" />
    <glyph glyph-name="Rcommaaccent" unicode="&#x156;" horiz-adv-x="722" 
d="M226 592v-201h172q108 0 108 102q0 99 -108 99h-172zM69 0v714h385q94 0 151.5 -57t57.5 -140q0 -134 -113 -179v-2q94 -26 104 -167q0 -2 2 -37.5t3.5 -51.5t8 -41t16.5 -39h-157q-8 20 -12 48.5t-7 66.5t-6 56q-8 58 -34.5 83t-84.5 25h-157v-279h-157zM298 -143v93
h145v-73q0 -58 -34 -76t-101 -18v37q48 4 57 37h-67z" />
    <glyph glyph-name="rcommaaccent" unicode="&#x157;" horiz-adv-x="389" 
d="M54 0v517h135v-96h2q20 49 66 79.5t99 30.5q14 0 31 -5v-132q-22 5 -51 5q-140 0 -140 -166v-233h-142zM55 -143v93h145v-73q0 -58 -34 -76t-101 -18v37q48 4 57 37h-67z" />
    <glyph glyph-name="Rcaron" unicode="&#x158;" horiz-adv-x="722" 
d="M226 592v-201h172q108 0 108 102q0 99 -108 99h-172zM69 0v714h385q94 0 151.5 -57t57.5 -140q0 -134 -113 -179v-2q94 -26 104 -167q0 -2 2 -37.5t3.5 -51.5t8 -41t16.5 -39h-157q-8 20 -12 48.5t-7 66.5t-6 56q-8 58 -34.5 83t-84.5 25h-157v-279h-157zM512 921
l-110 -142h-130l-111 142h112l64 -81l65 81h110z" />
    <glyph glyph-name="rcaron" unicode="&#x159;" horiz-adv-x="389" 
d="M54 0v517h135v-96h2q20 49 66 79.5t99 30.5q14 0 31 -5v-132q-22 5 -51 5q-140 0 -140 -166v-233h-142zM388 731l-110 -142h-130l-111 142h112l64 -81l65 81h110z" />
    <glyph glyph-name="Sacute" unicode="&#x15a;" horiz-adv-x="649" 
d="M24 237h152q0 -67 44.5 -99.5t113.5 -32.5q33 0 61.5 6.5t53 27.5t24.5 55q0 19 -9.5 34t-21.5 24.5t-36.5 19t-42.5 14t-51 13t-51 13.5q-45 11 -78.5 24.5t-66.5 36.5t-50.5 59t-17.5 83q0 103 80 159.5t187 56.5q79 0 141 -22t103.5 -75.5t41.5 -132.5h-152
q-6 108 -141 108q-43 0 -75.5 -20t-32.5 -61q0 -39 35 -55.5t178 -52.5q212 -48 212 -208q0 -102 -77.5 -165.5t-219.5 -63.5q-129 0 -217.5 65t-86.5 189zM522 921l-154 -142h-99l96 142h157z" />
    <glyph glyph-name="sacute" unicode="&#x15b;" horiz-adv-x="537" 
d="M29 168h135q0 -43 32 -65t77 -22q36 0 64.5 16t28.5 50q0 30 -37 46t-124 34q-37 8 -61.5 17t-50.5 24.5t-39 39.5t-13 57q0 47 19 81t52.5 52t71 25.5t82.5 7.5q95 0 157.5 -38.5t70.5 -126.5h-135q-5 70 -97 70q-79 0 -79 -48q0 -11 4.5 -19.5t14 -15t19.5 -11t26.5 -9
t29 -7.5t33.5 -7.5t34 -7.5q77 -18 120.5 -49t43.5 -96q0 -94 -68 -137t-168 -43q-65 0 -116 16t-88 58.5t-39 107.5zM465 731l-154 -142h-99l96 142h157z" />
    <glyph glyph-name="Scircumflex" unicode="&#x15c;" horiz-adv-x="649" 
d="M24 237h152q0 -67 44.5 -99.5t113.5 -32.5q33 0 61.5 6.5t53 27.5t24.5 55q0 19 -9.5 34t-21.5 24.5t-36.5 19t-42.5 14t-51 13t-51 13.5q-45 11 -78.5 24.5t-66.5 36.5t-50.5 59t-17.5 83q0 103 80 159.5t187 56.5q79 0 141 -22t103.5 -75.5t41.5 -132.5h-152
q-6 108 -141 108q-43 0 -75.5 -20t-32.5 -61q0 -39 35 -55.5t178 -52.5q212 -48 212 -208q0 -102 -77.5 -165.5t-219.5 -63.5q-129 0 -217.5 65t-86.5 189zM153 779l111 142h130l110 -142h-117l-62 81l-64 -81h-108z" />
    <glyph glyph-name="scircumflex" unicode="&#x15d;" horiz-adv-x="537" 
d="M29 168h135q0 -43 32 -65t77 -22q36 0 64.5 16t28.5 50q0 30 -37 46t-124 34q-37 8 -61.5 17t-50.5 24.5t-39 39.5t-13 57q0 47 19 81t52.5 52t71 25.5t82.5 7.5q95 0 157.5 -38.5t70.5 -126.5h-135q-5 70 -97 70q-79 0 -79 -48q0 -11 4.5 -19.5t14 -15t19.5 -11t26.5 -9
t29 -7.5t33.5 -7.5t34 -7.5q77 -18 120.5 -49t43.5 -96q0 -94 -68 -137t-168 -43q-65 0 -116 16t-88 58.5t-39 107.5zM100 589l111 142h130l110 -142h-117l-62 81l-64 -81h-108z" />
    <glyph glyph-name="Scedilla" unicode="&#x15e;" horiz-adv-x="649" 
d="M197 -195l21 48q42 -18 84 -18q40 0 40 34q0 32 -40 32q-22 0 -40 -7l-21 24l48 67q-41 3 -76 13q-86 23 -138 84t-51 155h152q0 -67 44.5 -99.5t113.5 -32.5q33 0 61.5 6.5t53 27.5t24.5 55q0 19 -9.5 34t-21.5 24.5t-36.5 19t-42.5 14t-51 13t-51 13.5
q-45 11 -78.5 24.5t-66.5 36.5t-50.5 59t-17.5 83q0 103 80 159.5t187 56.5q79 0 141 -22t103.5 -75.5t41.5 -132.5h-152q-6 108 -141 108q-43 0 -75.5 -20t-32.5 -61q0 -39 35 -55.5t178 -52.5q212 -48 212 -208q0 -75 -43 -130t-126 -82q-49 -15 -120 -17l-26 -35l1 -2
q17 7 35 7q37 0 64.5 -18t27.5 -52q0 -54 -33.5 -77t-83.5 -23q-64 0 -124 22z" />
    <glyph glyph-name="Scedilla" unicode="&#xf6c1;" horiz-adv-x="649" 
d="M197 -195l21 48q42 -18 84 -18q40 0 40 34q0 32 -40 32q-22 0 -40 -7l-21 24l48 67q-41 3 -76 13q-86 23 -138 84t-51 155h152q0 -67 44.5 -99.5t113.5 -32.5q33 0 61.5 6.5t53 27.5t24.5 55q0 19 -9.5 34t-21.5 24.5t-36.5 19t-42.5 14t-51 13t-51 13.5
q-45 11 -78.5 24.5t-66.5 36.5t-50.5 59t-17.5 83q0 103 80 159.5t187 56.5q79 0 141 -22t103.5 -75.5t41.5 -132.5h-152q-6 108 -141 108q-43 0 -75.5 -20t-32.5 -61q0 -39 35 -55.5t178 -52.5q212 -48 212 -208q0 -75 -43 -130t-126 -82q-49 -15 -120 -17l-26 -35l1 -2
q17 7 35 7q37 0 64.5 -18t27.5 -52q0 -54 -33.5 -77t-83.5 -23q-64 0 -124 22z" />
    <glyph glyph-name="scedilla" unicode="&#x15f;" horiz-adv-x="537" 
d="M144 -195l21 48q42 -18 84 -18q40 0 40 34q0 32 -40 32q-22 0 -40 -7l-21 24l50 69q-21 2 -54 8q-67 14 -109.5 57.5t-45.5 115.5h135q0 -43 32 -65t77 -22q36 0 64.5 16t28.5 50q0 30 -37 46t-124 34q-37 8 -61.5 17t-50.5 24.5t-39 39.5t-13 57q0 47 19 81t52.5 52
t71 25.5t82.5 7.5q95 0 157.5 -38.5t70.5 -126.5h-135q-5 70 -97 70q-79 0 -79 -48q0 -11 4.5 -19.5t14 -15t19.5 -11t26.5 -9t29 -7.5t33.5 -7.5t34 -7.5q77 -18 120.5 -49t43.5 -96q0 -72 -41.5 -114.5t-108.5 -56.5q-36 -8 -73 -9l-28 -38l1 -2q17 7 35 7q37 0 64.5 -18
t27.5 -52q0 -54 -33.5 -77t-83.5 -23q-64 0 -124 22z" />
    <glyph glyph-name="scedilla" unicode="&#xf6c2;" horiz-adv-x="537" 
d="M144 -195l21 48q42 -18 84 -18q40 0 40 34q0 32 -40 32q-22 0 -40 -7l-21 24l50 69q-21 2 -54 8q-67 14 -109.5 57.5t-45.5 115.5h135q0 -43 32 -65t77 -22q36 0 64.5 16t28.5 50q0 30 -37 46t-124 34q-37 8 -61.5 17t-50.5 24.5t-39 39.5t-13 57q0 47 19 81t52.5 52
t71 25.5t82.5 7.5q95 0 157.5 -38.5t70.5 -126.5h-135q-5 70 -97 70q-79 0 -79 -48q0 -11 4.5 -19.5t14 -15t19.5 -11t26.5 -9t29 -7.5t33.5 -7.5t34 -7.5q77 -18 120.5 -49t43.5 -96q0 -72 -41.5 -114.5t-108.5 -56.5q-36 -8 -73 -9l-28 -38l1 -2q17 7 35 7q37 0 64.5 -18
t27.5 -52q0 -54 -33.5 -77t-83.5 -23q-64 0 -124 22z" />
    <glyph glyph-name="Scaron" unicode="&#x160;" horiz-adv-x="649" 
d="M24 237h152q0 -67 44.5 -99.5t113.5 -32.5q33 0 61.5 6.5t53 27.5t24.5 55q0 19 -9.5 34t-21.5 24.5t-36.5 19t-42.5 14t-51 13t-51 13.5q-45 11 -78.5 24.5t-66.5 36.5t-50.5 59t-17.5 83q0 103 80 159.5t187 56.5q79 0 141 -22t103.5 -75.5t41.5 -132.5h-152
q-6 108 -141 108q-43 0 -75.5 -20t-32.5 -61q0 -39 35 -55.5t178 -52.5q212 -48 212 -208q0 -102 -77.5 -165.5t-219.5 -63.5q-129 0 -217.5 65t-86.5 189zM503 921l-110 -142h-130l-111 142h112l64 -81l65 81h110z" />
    <glyph glyph-name="scaron" unicode="&#x161;" horiz-adv-x="537" 
d="M29 168h135q0 -43 32 -65t77 -22q36 0 64.5 16t28.5 50q0 30 -37 46t-124 34q-37 8 -61.5 17t-50.5 24.5t-39 39.5t-13 57q0 47 19 81t52.5 52t71 25.5t82.5 7.5q95 0 157.5 -38.5t70.5 -126.5h-135q-5 70 -97 70q-79 0 -79 -48q0 -11 4.5 -19.5t14 -15t19.5 -11t26.5 -9
t29 -7.5t33.5 -7.5t34 -7.5q77 -18 120.5 -49t43.5 -96q0 -94 -68 -137t-168 -43q-65 0 -116 16t-88 58.5t-39 107.5zM449 731l-110 -142h-130l-111 142h112l64 -81l65 81h110z" />
    <glyph glyph-name="Tcommaaccent" unicode="&#x162;" horiz-adv-x="611" 
d="M227 0v582h-214v132h585v-132h-214v-582h-157zM232 -143v93h145v-73q0 -58 -34 -76t-101 -18v37q48 4 57 37h-67z" />
    <glyph glyph-name="tcommaaccent" unicode="&#x163;" horiz-adv-x="352" 
d="M234 672v-155h104v-95h-104v-256q0 -36 12 -48t48 -12q27 0 44 4v-111q-30 -5 -83 -5q-36 0 -63 5t-51 17.5t-36.5 37.5t-12.5 63v305h-86v95h86v155h142zM140 -143v93h145v-73q0 -58 -34 -76t-101 -18v37q48 4 57 37h-67z" />
    <glyph glyph-name="Tcaron" unicode="&#x164;" horiz-adv-x="611" 
d="M227 0v582h-214v132h585v-132h-214v-582h-157zM480 921l-110 -142h-130l-111 142h112l64 -81l65 81h110z" />
    <glyph glyph-name="tcaron" unicode="&#x165;" horiz-adv-x="444" 
d="M510 714l-85 -142h-98l35 142h148zM234 672v-155h104v-95h-104v-256q0 -36 12 -48t48 -12q27 0 44 4v-111q-30 -5 -83 -5q-36 0 -63 5t-51 17.5t-36.5 37.5t-12.5 63v305h-86v95h86v155h142z" />
    <glyph glyph-name="Tbar" unicode="&#x166;" horiz-adv-x="611" 
d="M72 392v75h155v115h-214v132h585v-132h-214v-115h161v-75h-161v-392h-157v392h-155z" />
    <glyph glyph-name="tbar" unicode="&#x167;" horiz-adv-x="352" 
d="M-8 271v75h100v76h-86v95h86v155h142v-155h104v-95h-104v-76h112v-75h-112v-105q0 -36 12 -48t48 -12q27 0 44 4v-111q-30 -5 -83 -5q-36 0 -63 5t-51 17.5t-36.5 37.5t-12.5 63v154h-100z" />
    <glyph glyph-name="Utilde" unicode="&#x168;" horiz-adv-x="741" 
d="M675 714v-444q0 -142 -79.5 -214.5t-225.5 -72.5q-147 0 -225.5 71.5t-78.5 215.5v444h157v-444q0 -71 30.5 -113t116.5 -42q82 0 115 36.5t33 118.5v444h157zM488 911h69q-11 -53 -34 -82t-78 -32q-35 0 -81 17q-51 17 -68 17q-33 0 -45 -42h-61q6 48 37 84.5t80 37.5
q29 0 72 -18q49 -17 65 -17q34 0 44 35z" />
    <glyph glyph-name="utilde" unicode="&#x169;" 
d="M539 517v-517h-135v72h-3q-26 -42 -68.5 -64t-89.5 -22q-107 0 -148 54t-41 159v318h142v-292q0 -65 21 -96t70 -31q58 0 84 35t26 113v271h142zM413 721h69q-11 -53 -34 -82t-78 -32q-35 0 -81 17q-51 17 -68 17q-33 0 -45 -42h-61q6 48 37 84.5t80 37.5q29 0 72 -18
q49 -17 65 -17q34 0 44 35z" />
    <glyph glyph-name="Umacron" unicode="&#x16a;" horiz-adv-x="741" 
d="M675 714v-444q0 -142 -79.5 -214.5t-225.5 -72.5q-147 0 -225.5 71.5t-78.5 215.5v444h157v-444q0 -71 30.5 -113t116.5 -42q82 0 115 36.5t33 118.5v444h157zM186 809v75h373v-75h-373z" />
    <glyph glyph-name="umacron" unicode="&#x16b;" 
d="M539 517v-517h-135v72h-3q-26 -42 -68.5 -64t-89.5 -22q-107 0 -148 54t-41 159v318h142v-292q0 -65 21 -96t70 -31q58 0 84 35t26 113v271h142zM113 619v75h373v-75h-373z" />
    <glyph glyph-name="Ubreve" unicode="&#x16c;" horiz-adv-x="741" 
d="M675 714v-444q0 -142 -79.5 -214.5t-225.5 -72.5q-147 0 -225.5 71.5t-78.5 215.5v444h157v-444q0 -71 30.5 -113t116.5 -42q82 0 115 36.5t33 118.5v444h157zM202 923h65q5 -37 34 -54t65 -17q93 0 110 71h63q-18 -146 -178 -146q-147 0 -159 146z" />
    <glyph glyph-name="ubreve" unicode="&#x16d;" 
d="M539 517v-517h-135v72h-3q-26 -42 -68.5 -64t-89.5 -22q-107 0 -148 54t-41 159v318h142v-292q0 -65 21 -96t70 -31q58 0 84 35t26 113v271h142zM131 733h65q5 -37 34 -54t65 -17q93 0 110 71h63q-18 -146 -178 -146q-147 0 -159 146z" />
    <glyph glyph-name="Uring" unicode="&#x16e;" horiz-adv-x="741" 
d="M675 714v-444q0 -142 -79.5 -214.5t-225.5 -72.5q-147 0 -225.5 71.5t-78.5 215.5v444h157v-444q0 -71 30.5 -113t116.5 -42q82 0 115 36.5t33 118.5v444h157zM247 864q0 51 35.5 86.5t86.5 35.5t87 -35.5t36 -86.5t-36 -86t-87 -35t-86.5 35t-35.5 86zM306 864
q0 -30 17 -49t46 -19t46.5 19t17.5 49t-17.5 49t-46.5 19t-46 -19t-17 -49z" />
    <glyph glyph-name="uring" unicode="&#x16f;" 
d="M539 517v-517h-135v72h-3q-26 -42 -68.5 -64t-89.5 -22q-107 0 -148 54t-41 159v318h142v-292q0 -65 21 -96t70 -31q58 0 84 35t26 113v271h142zM176 684q0 51 35.5 86.5t86.5 35.5t87 -35.5t36 -86.5t-36 -86t-87 -35t-86.5 35t-35.5 86zM235 684q0 -30 17 -49t46 -19
t46.5 19t17.5 49t-17.5 49t-46.5 19t-46 -19t-17 -49z" />
    <glyph glyph-name="Uhungarumlaut" unicode="&#x170;" horiz-adv-x="741" 
d="M675 714v-444q0 -142 -79.5 -214.5t-225.5 -72.5q-147 0 -225.5 71.5t-78.5 215.5v444h157v-444q0 -71 30.5 -113t116.5 -42q82 0 115 36.5t33 118.5v444h157zM667 921l-149 -142h-99l91 142h157zM460 921l-149 -142h-99l91 142h157z" />
    <glyph glyph-name="uhungarumlaut" unicode="&#x171;" 
d="M539 517v-517h-135v72h-3q-26 -42 -68.5 -64t-89.5 -22q-107 0 -148 54t-41 159v318h142v-292q0 -65 21 -96t70 -31q58 0 84 35t26 113v271h142zM595 731l-149 -142h-99l91 142h157zM388 731l-149 -142h-99l91 142h157z" />
    <glyph glyph-name="Uogonek" unicode="&#x172;" horiz-adv-x="741" 
d="M443 -127l48 -22q-54 -68 -133 -68q-37 0 -63 13q-19 9 -31.5 28.5t-12.5 40.5q1 25 9 41.5t40 48.5q7 6 38 29q-123 8 -193 69q-79 70 -79 217v444h157v-444q0 -71 30.5 -113t116.5 -42q82 0 115 36.5t33 118.5v444h157v-444q0 -146 -81 -216q-69 -60 -181 -69
q-37 -35 -49 -54q-17 -28 -17 -48q0 -19 11.5 -29.5t27.5 -10.5q28 0 57 30z" />
    <glyph glyph-name="uogonek" unicode="&#x173;" 
d="M475 -127l44 -22q-50 -68 -121 -68q-33 0 -58 13q-17 9 -28.5 28.5t-11.5 40.5q0 27 15 53q22 39 89 82v72h-3q-26 -42 -68.5 -64t-89.5 -22q-107 0 -148 54t-41 159v318h142v-292q0 -65 21 -96t70 -31q58 0 84 35t26 113v271h142v-517h-76q-75 -72 -75 -117
q0 -19 10 -29.5t25 -10.5q26 0 52 30z" />
    <glyph glyph-name="Wcircumflex" unicode="&#x174;" horiz-adv-x="944" 
d="M941 714l-192 -714h-156l-121 486h-2l-119 -486h-159l-189 714h157l113 -486h2l124 486h147l122 -492h2l117 492h154zM301 779l111 142h130l110 -142h-117l-62 81l-64 -81h-108z" />
    <glyph glyph-name="wcircumflex" unicode="&#x175;" horiz-adv-x="814" 
d="M808 517l-163 -517h-146l-92 347h-2l-88 -347h-147l-164 517h150l95 -351h2l86 351h138l88 -350h2l95 350h146zM235 589l111 142h130l110 -142h-117l-62 81l-64 -81h-108z" />
    <glyph glyph-name="Ycircumflex" unicode="&#x176;" horiz-adv-x="667" 
d="M254 0v278l-263 436h177l167 -282l166 282h175l-265 -440v-274h-157zM164 779l111 142h130l110 -142h-117l-62 81l-64 -81h-108z" />
    <glyph glyph-name="ycircumflex" unicode="&#x177;" horiz-adv-x="519" 
d="M525 517l-216 -582q-23 -63 -64.5 -90t-113.5 -27q-39 0 -87 5v117q54 -6 83 -5q27 3 41 21.5t14 43.5q0 17 -6 32l-182 485h152l117 -354h2l113 354h147zM92 589l111 142h130l110 -142h-117l-62 81l-64 -81h-108z" />
    <glyph glyph-name="Ydieresis" unicode="&#x178;" horiz-adv-x="667" 
d="M254 0v278l-263 436h177l167 -282l166 282h175l-265 -440v-274h-157zM165 788v117h135v-117h-135zM371 788v117h135v-117h-135z" />
    <glyph glyph-name="Zacute" unicode="&#x179;" horiz-adv-x="648" 
d="M23 0v124l383 458h-353v132h562v-124l-383 -458h393v-132h-602zM521 921l-154 -142h-99l96 142h157z" />
    <glyph glyph-name="zacute" unicode="&#x17a;" horiz-adv-x="519" 
d="M22 0v107l269 303h-249v107h436v-107l-269 -303h288v-107h-475zM460 731l-154 -142h-99l96 142h157z" />
    <glyph glyph-name="Zdotaccent" unicode="&#x17b;" horiz-adv-x="648" 
d="M23 0v124l383 458h-353v132h562v-124l-383 -458h393v-132h-602zM267 788v117h135v-117h-135z" />
    <glyph glyph-name="zdotaccent" unicode="&#x17c;" horiz-adv-x="519" 
d="M22 0v107l269 303h-249v107h436v-107l-269 -303h288v-107h-475zM197 598v117h135v-117h-135z" />
    <glyph glyph-name="Zcaron" unicode="&#x17d;" horiz-adv-x="648" 
d="M23 0v124l383 458h-353v132h562v-124l-383 -458h393v-132h-602zM507 921l-110 -142h-130l-111 142h112l64 -81l65 81h110z" />
    <glyph glyph-name="zcaron" unicode="&#x17e;" horiz-adv-x="519" 
d="M22 0v107l269 303h-249v107h436v-107l-269 -303h288v-107h-475zM438 731l-110 -142h-130l-111 142h112l64 -81l65 81h110z" />
    <glyph glyph-name="florin" unicode="&#x192;" horiz-adv-x="556" 
d="M-5 -167l19 107q20 -3 40 -3q36 -1 50.5 16t21.5 55l63 329h-92l18 95h91l24 127q18 95 63.5 133.5t142.5 38.5q43 0 75 -7l-18 -107q-15 7 -40 7q-38 0 -54 -14t-22 -48l-25 -130h98l-16 -95h-100l-56 -310q-19 -107 -61.5 -152t-147.5 -45q-46 0 -74 3z" />
    <glyph glyph-name="Scommaaccent" unicode="&#x218;" horiz-adv-x="649" 
d="M24 237h152q0 -67 44.5 -99.5t113.5 -32.5q33 0 61.5 6.5t53 27.5t24.5 55q0 19 -9.5 34t-21.5 24.5t-36.5 19t-42.5 14t-51 13t-51 13.5q-45 11 -78.5 24.5t-66.5 36.5t-50.5 59t-17.5 83q0 103 80 159.5t187 56.5q79 0 141 -22t103.5 -75.5t41.5 -132.5h-152
q-6 108 -141 108q-43 0 -75.5 -20t-32.5 -61q0 -39 35 -55.5t178 -52.5q212 -48 212 -208q0 -102 -77.5 -165.5t-219.5 -63.5q-129 0 -217.5 65t-86.5 189zM249 -143v93h145v-73q0 -58 -34 -76t-101 -18v37q48 4 57 37h-67z" />
    <glyph glyph-name="scommaaccent" unicode="&#x219;" horiz-adv-x="537" 
d="M29 168h135q0 -43 32 -65t77 -22q36 0 64.5 16t28.5 50q0 30 -37 46t-124 34q-37 8 -61.5 17t-50.5 24.5t-39 39.5t-13 57q0 47 19 81t52.5 52t71 25.5t82.5 7.5q95 0 157.5 -38.5t70.5 -126.5h-135q-5 70 -97 70q-79 0 -79 -48q0 -11 4.5 -19.5t14 -15t19.5 -11t26.5 -9
t29 -7.5t33.5 -7.5t34 -7.5q77 -18 120.5 -49t43.5 -96q0 -94 -68 -137t-168 -43q-65 0 -116 16t-88 58.5t-39 107.5zM199 -143v93h145v-73q0 -58 -34 -76t-101 -18v37q48 4 57 37h-67z" />
    <glyph glyph-name="uni021A" unicode="&#x21a;" horiz-adv-x="611" 
d="M227 0v582h-214v132h585v-132h-214v-582h-157zM232 -143v93h145v-73q0 -58 -34 -76t-101 -18v37q48 4 57 37h-67z" />
    <glyph glyph-name="uni021B" unicode="&#x21b;" horiz-adv-x="352" 
d="M234 672v-155h104v-95h-104v-256q0 -36 12 -48t48 -12q27 0 44 4v-111q-30 -5 -83 -5q-36 0 -63 5t-51 17.5t-36.5 37.5t-12.5 63v305h-86v95h86v155h142zM140 -143v93h145v-73q0 -58 -34 -76t-101 -18v37q48 4 57 37h-67z" />
    <glyph glyph-name="circumflex" unicode="&#x2c6;" horiz-adv-x="259" 
d="M-46 589l111 142h130l110 -142h-117l-62 81l-64 -81h-108z" />
    <glyph glyph-name="caron" unicode="&#x2c7;" horiz-adv-x="259" 
d="M305 731l-110 -142h-130l-111 142h112l64 -81l65 81h110z" />
    <glyph glyph-name="uni02C9" unicode="&#x2c9;" horiz-adv-x="259" 
d="M-57 619v75h373v-75h-373z" />
    <glyph glyph-name="breve" unicode="&#x2d8;" horiz-adv-x="259" 
d="M-39 733h65q5 -37 34 -54t65 -17q93 0 110 71h63q-18 -146 -178 -146q-147 0 -159 146z" />
    <glyph glyph-name="dotaccent" unicode="&#x2d9;" horiz-adv-x="259" 
d="M62 598v117h135v-117h-135z" />
    <glyph glyph-name="ring" unicode="&#x2da;" horiz-adv-x="259" 
d="M7 684q0 51 35.5 86.5t86.5 35.5t87 -35.5t36 -86.5t-36 -86t-87 -35t-86.5 35t-35.5 86zM66 684q0 -30 17 -49t46 -19t46.5 19t17.5 49t-17.5 49t-46.5 19t-46 -19t-17 -49z" />
    <glyph glyph-name="ogonek" unicode="&#x2db;" horiz-adv-x="259" 
d="M201 -127l48 -22q-54 -68 -133 -68q-37 0 -63 13q-19 9 -31.5 28.5t-12.5 40.5q0 27 16 53q24 38 98 82h65q-83 -74 -83 -117q0 -19 11.5 -29.5t27.5 -10.5q28 0 57 30z" />
    <glyph glyph-name="tilde" unicode="&#x2dc;" horiz-adv-x="259" 
d="M244 721h69q-11 -53 -34 -82t-78 -32q-35 0 -81 17q-51 17 -68 17q-33 0 -45 -42h-61q6 48 37 84.5t80 37.5q29 0 72 -18q49 -17 65 -17q34 0 44 35z" />
    <glyph glyph-name="hungarumlaut" unicode="&#x2dd;" horiz-adv-x="259" 
d="M399 731l-149 -142h-99l91 142h157zM192 731l-149 -142h-99l91 142h157z" />
    <glyph glyph-name="uni0394" unicode="&#x394;" horiz-adv-x="702" 
d="M504 124l-162 437l-151 -437h313zM692 0h-682l261 712h143z" />
    <glyph glyph-name="uni03A9" unicode="&#x3a9;" horiz-adv-x="768" 
d="M712 411q0 -92 -47 -167t-132 -94v-32h178v-118h-287v204q69 14 106 67.5t37 126.5q0 84 -51 141.5t-134 57.5q-85 0 -136.5 -58.5t-51.5 -143.5q0 -74 35.5 -124t105.5 -67v-204h-287v118h178v32q-84 23 -131 95.5t-47 163.5q0 139 96 225.5t237 86.5t236 -85.5
t95 -224.5z" />
    <glyph glyph-name="uni03BC" unicode="&#x3bc;" 
d="M539 517v-517h-135v72h-3q-26 -40 -64 -63t-66 -23q-53 0 -75 24v-192h-142v699h142v-292q0 -65 21 -96t70 -31q58 0 84 35t26 113v271h142z" />
    <glyph glyph-name="pi" unicode="&#x3c0;" horiz-adv-x="609" 
d="M585 112v-95q-52 -25 -96 -25q-65 0 -89.5 35.5t-24.5 102.5v241h-176v-371h-129v371h-70v118h583v-118h-80v-205q0 -21 1 -31t10 -22t28 -12t43 11z" />
    <glyph glyph-name="endash" unicode="&#x2013;" horiz-adv-x="500" 
d="M0 212v122h500v-122h-500z" />
    <glyph glyph-name="emdash" unicode="&#x2014;" horiz-adv-x="1000" 
d="M130 212v122h740v-122h-740z" />
    <glyph glyph-name="quoteleft" unicode="&#x2018;" horiz-adv-x="278" 
d="M210 547v-154h-142v153q-2 65 38.5 112.5t103.5 55.5v-66q-66 -22 -66 -101h66z" />
    <glyph glyph-name="quoteright" unicode="&#x2019;" horiz-adv-x="278" 
d="M68 560v154h142v-153q2 -65 -38.5 -112.5t-103.5 -55.5v66q66 22 66 101h-66z" />
    <glyph glyph-name="quotesinglbase" unicode="&#x201a;" horiz-adv-x="278" 
d="M68 0v154h142v-153q2 -65 -38.5 -112.5t-103.5 -55.5v66q66 22 66 101h-66z" />
    <glyph glyph-name="quotedblleft" unicode="&#x201c;" horiz-adv-x="463" 
d="M196 547v-154h-142v153q-2 65 38.5 112.5t103.5 55.5v-66q-66 -22 -66 -101h66zM409 547v-154h-142v153q-2 65 38.5 112.5t103.5 55.5v-66q-66 -22 -66 -101h66z" />
    <glyph glyph-name="quotedblright" unicode="&#x201d;" horiz-adv-x="463" 
d="M54 560v154h142v-153q2 -65 -38.5 -112.5t-103.5 -55.5v66q66 22 66 101h-66zM267 560v154h142v-153q2 -65 -38.5 -112.5t-103.5 -55.5v66q66 22 66 101h-66z" />
    <glyph glyph-name="quotedblbase" unicode="&#x201e;" horiz-adv-x="463" 
d="M54 0v154h142v-153q2 -65 -38.5 -112.5t-103.5 -55.5v66q66 22 66 101h-66zM267 0v154h142v-153q2 -65 -38.5 -112.5t-103.5 -55.5v66q66 22 66 101h-66z" />
    <glyph glyph-name="dagger" unicode="&#x2020;" horiz-adv-x="556" 
d="M210 -166v566h-186v117h186v197h135v-197h187v-117h-187v-566h-135z" />
    <glyph glyph-name="daggerdbl" unicode="&#x2021;" horiz-adv-x="556" 
d="M210 -166v193h-186v117h186v256h-186v117h186v197h135v-197h187v-117h-187v-256h187v-117h-187v-193h-135z" />
    <glyph glyph-name="bullet" unicode="&#x2022;" horiz-adv-x="501" 
d="M72 357q0 74 52 126t126 52t126.5 -52t52.5 -126t-52.5 -126.5t-126.5 -52.5t-126 52.5t-52 126.5z" />
    <glyph glyph-name="ellipsis" unicode="&#x2026;" horiz-adv-x="1000" 
d="M754 0v154h157v-154h-157zM421 0v154h157v-154h-157zM88 0v154h157v-154h-157z" />
    <glyph glyph-name="perthousand" unicode="&#x2030;" horiz-adv-x="1147" 
d="M440 155q0 76 36.5 125.5t110.5 49.5q145 0 145 -174q0 -77 -36 -123.5t-110 -46.5q-69 0 -107.5 46.5t-38.5 122.5zM150 -22l414 744h85l-412 -744h-87zM159 556q0 -36 2.5 -58.5t16 -42.5t37.5 -20q14 0 24 4t16 13.5t9.5 17.5t5 23.5t1.5 23.5v25q0 25 -1 39.5
t-6 32.5t-16.5 26.5t-30.5 8.5q-20 0 -32.5 -8.5t-17.5 -24.5t-6.5 -28.5t-1.5 -31.5zM69 539q0 76 36.5 125.5t110.5 49.5q145 0 145 -174q0 -77 -36 -123.5t-110 -46.5q-69 0 -107.5 46.5t-38.5 122.5zM876 172q0 -36 2.5 -58.5t16 -42.5t37.5 -20q14 0 24 4t16 13.5
t9.5 17.5t5 23.5t1.5 23.5v25q0 25 -1 39.5t-6 32.5t-16.5 26.5t-30.5 8.5q-20 0 -32.5 -8.5t-17.5 -24.5t-6.5 -28.5t-1.5 -31.5zM786 155q0 76 36.5 125.5t110.5 49.5q145 0 145 -174q0 -77 -36 -123.5t-110 -46.5q-69 0 -107.5 46.5t-38.5 122.5zM530 172
q0 -36 2.5 -58.5t16 -42.5t37.5 -20q14 0 24 4t16 13.5t9.5 17.5t5 23.5t1.5 23.5v25q0 25 -1 39.5t-6 32.5t-16.5 26.5t-30.5 8.5q-20 0 -32.5 -8.5t-17.5 -24.5t-6.5 -28.5t-1.5 -31.5z" />
    <glyph glyph-name="guilsinglleft" unicode="&#x2039;" horiz-adv-x="241" 
d="M199 80l-157 125v135l157 123v-120l-90 -71l90 -72v-120z" />
    <glyph glyph-name="guilsinglright" unicode="&#x203a;" horiz-adv-x="241" 
d="M42 463l157 -123v-135l-157 -125v120l90 72l-90 71v120z" />
    <glyph glyph-name="fraction" unicode="&#x2044;" horiz-adv-x="167" 
d="M-166 -22l414 744h85l-412 -744h-87z" />
    <glyph glyph-name="afii61289" unicode="&#x2113;" horiz-adv-x="500" 
d="M456 53q-80 -67 -172 -67q-77 0 -120.5 41t-43.5 106v41l-55 -48h-2l-49 75l105 86v238q0 84 51 140t129 56q69 0 110 -41t41 -109q0 -75 -47 -149t-145 -157v-110q0 -35 17.5 -51.5t43.5 -16.5q38 0 88 38h2zM337 563q0 28 -11 47t-28 19t-28.5 -21.5t-11.5 -56.5v-169
q79 83 79 181z" />
    <glyph glyph-name="trademark" unicode="&#x2122;" horiz-adv-x="1000" 
d="M398 714v-80h-117v-332h-102v332h-117v80h336zM928 714v-412h-96v292h-2l-106 -292h-69l-106 292h-2v-292h-96v412h136l103 -271l103 271h135z" />
    <glyph glyph-name="Omega" unicode="&#x2126;" horiz-adv-x="768" 
d="M712 411q0 -92 -47 -167t-132 -94v-32h178v-118h-287v204q69 14 106 67.5t37 126.5q0 84 -51 141.5t-134 57.5q-85 0 -136.5 -58.5t-51.5 -143.5q0 -74 35.5 -124t105.5 -67v-204h-287v118h178v32q-84 23 -131 95.5t-47 163.5q0 139 96 225.5t237 86.5t236 -85.5
t95 -224.5z" />
    <glyph glyph-name="estimated" unicode="&#x212e;" horiz-adv-x="600" 
d="M561 259h-404v-181q59 -59 145 -59q122 0 193 120l35 -21q-46 -72 -98 -103.5t-130 -31.5q-115 0 -186.5 79t-71.5 197q0 119 71 197.5t187 78.5q115 0 186.5 -77t72.5 -199zM157 295h291v145q-63 60 -147 60t-144 -60v-145z" />
    <glyph glyph-name="partialdiff" unicode="&#x2202;" horiz-adv-x="572" 
d="M529 359q0 -56 -6 -105t-24 -99.5t-45.5 -86.5t-74.5 -58.5t-108 -22.5q-102 0 -165.5 65t-63.5 167q0 97 62 160.5t158 63.5q71 0 134 -48v15q0 36 -6.5 70t-21 67t-43 53t-66.5 20q-59 0 -121 -53l-70 80q88 74 185 74q60 0 108 -20.5t79 -55t51.5 -82t29 -98
t8.5 -106.5zM395 268v23q-50 55 -112 55q-54 0 -84 -39t-30 -95q0 -53 26.5 -90.5t77.5 -37.5q42 0 71.5 31.5t41 72t9.5 80.5z" />
    <glyph glyph-name="Delta" unicode="&#x2206;" horiz-adv-x="702" 
d="M504 124l-162 437l-151 -437h313zM692 0h-682l261 712h143z" />
    <glyph glyph-name="product" unicode="&#x220f;" horiz-adv-x="749" 
d="M693 -214h-132v874h-373v-874h-133v1000h638v-1000z" />
    <glyph glyph-name="summation" unicode="&#x2211;" horiz-adv-x="673" 
d="M646 -214h-619v110l295 396l-283 384v110h595v-126h-418l263 -367l-281 -381h448v-126z" />
    <glyph glyph-name="minus" unicode="&#x2212;" horiz-adv-x="600" 
d="M48 199v107h505v-107h-505z" />
    <glyph glyph-name="uni2215" unicode="&#x2215;" horiz-adv-x="167" 
d="M-166 -22l414 744h85l-412 -744h-87z" />
    <glyph glyph-name="uni2219" unicode="&#x2219;" horiz-adv-x="278" 
d="M55 287q0 35 25.5 60t59.5 25t59 -25t25 -60q0 -33 -25 -58.5t-58 -25.5q-35 0 -60.5 25t-25.5 59z" />
    <glyph glyph-name="radical" unicode="&#x221a;" horiz-adv-x="570" 
d="M580 786l-218 -1000h-122l-147 303l-53 -26l-49 105l171 78l117 -255l162 795h139z" />
    <glyph glyph-name="infinity" unicode="&#x221e;" horiz-adv-x="848" 
d="M803 269q0 -87 -49.5 -143.5t-134.5 -56.5q-57 0 -103.5 31t-91.5 85q-50 -57 -91 -85.5t-101 -28.5q-85 0 -136 55.5t-51 141.5q0 85 49.5 140t133.5 55q62 0 104.5 -30.5t91.5 -91.5q44 58 89.5 90t106.5 32q84 0 133.5 -55t49.5 -139zM694 266q0 36 -21 59.5t-57 23.5
q-52 0 -125 -85q69 -80 128 -80q35 0 55 23.5t20 58.5zM356 264q-72 84 -127 84q-34 0 -54.5 -24t-20.5 -58q0 -36 21 -58.5t56 -22.5q63 0 125 79z" />
    <glyph glyph-name="integral" unicode="&#x222b;" horiz-adv-x="628" 
d="M519 702q0 -28 -17 -46t-44 -18q-29 0 -42 22t-19 43.5t-18 21.5q-19 0 -19 -37q0 -28 3 -81t3 -80v-413v-69q0 -41 -3 -73t-13 -68.5t-27.5 -60.5t-49 -40t-74.5 -16q-44 0 -83 24t-39 65q0 25 18.5 41t44.5 16q22 0 35 -13.5t16 -30t8.5 -30t15.5 -13.5q19 0 19 35
q0 24 -3 72t-3 72v465v45t1.5 44.5t4.5 45.5t9 41t14.5 39t21.5 31.5t30 26t40.5 15t51.5 6.5q42 0 80 -22t38 -60z" />
    <glyph glyph-name="approxequal" unicode="&#x2248;" 
d="M572 474q-12 -129 -96 -173q-32 -17 -64 -17q-37 0 -124.5 31.5t-122.5 31.5q-25 0 -40 -18t-18 -43h-85q7 83 46.5 134t118.5 51q41 0 121 -28t120 -28q51 0 58 59h86zM571 248q-7 -81 -44.5 -136.5t-111.5 -55.5q-39 0 -129 32t-122 32q-24 0 -39 -17.5t-19 -43.5h-85
q4 76 44 133t112 57q38 0 124.5 -30.5t126.5 -30.5q47 0 57 60h86z" />
    <glyph glyph-name="notequal" unicode="&#x2260;" 
d="M563 85h-286l-78 -157l-114 57l51 100h-106v130h170l52 103h-222v129h286l79 157l113 -57l-50 -100h105v-129h-169l-52 -103h221v-130z" />
    <glyph glyph-name="lessequal" unicode="&#x2264;" 
d="M563 114l-533 168v129l533 165v-135l-354 -94l354 -98v-135zM563 -43h-533v129h533v-129z" />
    <glyph glyph-name="greaterequal" unicode="&#x2265;" 
d="M563 282l-533 -168v135l354 98l-354 94v135l533 -165v-129zM563 -43h-533v129h533v-129z" />
    <glyph glyph-name="lozenge" unicode="&#x25ca;" 
d="M541 356l-186 -391h-119l-184 391l185 391h118zM408 356l-112 261l-112 -261l112 -262z" />
    <glyph glyph-name="commaaccent" unicode="&#xf004;" horiz-adv-x="278" 
d="M75 -143v93h145v-73q0 -58 -34 -76t-101 -18v37q48 4 57 37h-67z" />
    <glyph glyph-name="commaaccent" unicode="&#xf6c3;" horiz-adv-x="278" 
d="M75 -143v93h145v-73q0 -58 -34 -76t-101 -18v37q48 4 57 37h-67z" />
    <glyph glyph-name="dotlessj" unicode="&#xf6be;" horiz-adv-x="278" 
d="M-19 -178v117q11 -4 31 -4q55 0 55 46v536h142v-543q0 -83 -39 -119.5t-143 -36.5q-26 0 -46 4z" />
    <glyph glyph-name="dotlessj" unicode="&#xfb0f;" horiz-adv-x="278" 
d="M-19 -178v117q11 -4 31 -4q55 0 55 46v536h142v-543q0 -83 -39 -119.5t-143 -36.5q-26 0 -46 4z" />
    <glyph glyph-name="uniF8FF" unicode="&#xf8ff;" horiz-adv-x="512" 
d="M222 117h56v67h-56v-67zM225 234h46q0 52 6 72q6 19 43 52q37 34 50 60t13 60q0 59 -35 95t-89 36q-56 0 -92 -34t-43 -103l50 -8q11 95 82 95q31 0 53.5 -24.5t22.5 -60.5q0 -20 -9.5 -37t-40.5 -46q-31 -31 -46 -59q-13 -25 -13 -81zM462 50h-412v617h412v-617z
M512 718h-512v-718h512v718z" />
    <glyph glyph-name="commaaccent.alt" horiz-adv-x="278" 
d="M214 714v-93h-145v73q0 58 34 76t101 18v-37q-48 -4 -57 -37h67z" />
    <glyph glyph-name="caron.alt" horiz-adv-x="259" 
d="M268 714l-85 -142h-98l35 142h148z" />
    <glyph glyph-name="grave.cap" horiz-adv-x="259" 
d="M106 779l-154 142h157l96 -142h-99z" />
    <glyph glyph-name="acute.cap" horiz-adv-x="259" 
d="M308 921l-154 -142h-99l96 142h157z" />
    <glyph glyph-name="circumflex.cap" horiz-adv-x="259" 
d="M-46 779l111 142h130l110 -142h-117l-62 81l-64 -81h-108z" />
    <glyph glyph-name="caron.cap" horiz-adv-x="259" 
d="M305 921l-110 -142h-130l-111 142h112l64 -81l65 81h110z" />
    <glyph glyph-name="tilde.cap" horiz-adv-x="259" 
d="M244 911h69q-11 -53 -34 -82t-78 -32q-35 0 -81 17q-51 17 -68 17q-33 0 -45 -42h-61q6 48 37 84.5t80 37.5q29 0 72 -18q49 -17 65 -17q34 0 44 35z" />
    <glyph glyph-name="dieresis.cap" horiz-adv-x="259" 
d="M-41 788v117h135v-117h-135zM165 788v117h135v-117h-135z" />
    <glyph glyph-name="macron.cap" horiz-adv-x="259" 
d="M-57 809v75h373v-75h-373z" />
    <glyph glyph-name="breve.cap" horiz-adv-x="259" 
d="M-39 923h65q5 -37 34 -54t65 -17q93 0 110 71h63q-18 -146 -178 -146q-147 0 -159 146z" />
    <glyph glyph-name="ring.cap" horiz-adv-x="259" 
d="M7 866q0 51 35.5 86.5t86.5 35.5t87 -35.5t36 -86.5t-36 -86t-87 -35t-86.5 35t-35.5 86zM66 866q0 -30 17 -49t46 -19t46.5 19t17.5 49t-17.5 49t-46.5 19t-46 -19t-17 -49z" />
    <glyph glyph-name="hungarumlaut.cap" horiz-adv-x="259" 
d="M399 921l-149 -142h-99l91 142h157zM192 921l-149 -142h-99l91 142h157z" />
    <glyph glyph-name="dotaccent.cap" horiz-adv-x="259" 
d="M62 788v117h135v-117h-135z" />
  </font>
</defs>
</svg>
